<?xml version="1.0" standalone="no"?>
<!DOCTYPE svg PUBLIC "-//W3C//DTD SVG 1.1//EN" "http://www.w3.org/Graphics/SVG/1.1/DTD/svg11.dtd">
<svg xmlns="http://www.w3.org/2000/svg">
<metadata>Copyright (C) 2021 by original authors @ fontello.com</metadata>
<defs>
<font id="chatspin-icons" horiz-adv-x="1000" >
<font-face font-family="chatspin-icons" font-weight="400" font-stretch="normal" units-per-em="1000" ascent="850" descent="-150" />
<missing-glyph horiz-adv-x="1000" />
<glyph glyph-name="mic-cs" unicode="&#xe800;" d="M697 375c0-145-114-247-242-247-129 0-243 101-243 247h-78c0-165 123-299 275-323v-159h91v158c151 24 276 159 276 323h-79z m-242-146c78 0 138 63 138 145v290c0 82-60 144-138 144-78 0-138-62-138-144v-289c0-82 59-146 138-146z" horiz-adv-x="909" />

<glyph glyph-name="switch-cs" unicode="&#xe801;" d="M297-149l-219 205 219 205 54-50-125-116h540c92 0 167 70 167 156v121h89v-138c0-117-102-213-227-213h-572l127-119-53-51z m-172 477h42v121c0 86 75 156 167 156h540l-125-116 54-50 219 205-219 205-54-50 128-119h-572c-125-1-227-96-227-214v-138h47z" horiz-adv-x="1100" />

<glyph glyph-name="country-filter" unicode="&#xe802;" d="M915 628l-15-5-79-7-23-36-16 5-64 57-9 29-12 32-40 35-47 10-1-20 46-45 23-27-26-13-21 6-30 13 1 25-41 17-13-59-42-9 4-33 54-10 9 52 44-6 21-12h33l23-45 59-60-4-24-49 6-83-42-59-71-8-32h-22l-40 19-38-19 9-41 17 20 29 0-1-36 24-8 25-27 40 11 46-7 53-14 26-4 45-50 87-51-56-107-60-28-22-61-86-58-9-33c219 53 382 251 382 486 1 102-30 198-84 277z m-358-539l-36 67 34 70-34 10-37 37-83 19-28 58v-34h-12l-72 97v80l-53 85-83-14h-57l-28 18 36 29-36-8c-43-75-68-161-68-253 0-276 224-499 500-499 21 0 42 2 63 4l-6 61c0 0 23 90 23 93 1 2-23 80-23 80z m-371 600l88 13 41 22 46-13 74 4 25 39 37-6 90 8 24 28 35 23 49-7 18 3c-65 30-137 47-213 47-155 0-294-71-386-182h0l72 21z m335 112l51 28 33-19-48-36-45-5-20 13 29 19z m-151-4l23-10 29 10 16-29-68-18-33 20c0 0 32 21 33 27z" horiz-adv-x="1000" />

<glyph glyph-name="cup" unicode="&#xe803;" d="M971 778h-129c1 14 1 28 1 43 0 16-13 29-29 29h-628c-16 0-29-13-29-29 0-15 0-29 1-43h-129c-16 0-29-13-29-30 0-131 34-255 97-348 61-93 143-146 232-151 20-22 41-40 63-53v-131h-49c-59 0-108-48-108-108v-48h-2c-16 0-29-14-29-30 0-16 13-29 29-29h534c16 0 29 13 29 29 0 16-13 30-29 30h-2v49c0 59-49 108-108 108h-50v130c23 13 44 31 64 53 89 5 171 58 232 151 63 93 97 217 97 348 0 17-13 30-29 30z m-826-346c-51 77-81 179-86 287h102c11-134 42-257 91-355 8-16 16-31 24-45-48 19-93 57-131 113z m561-474v-49h-412v49c0 27 22 49 49 49h314c27 0 49-22 49-49z m-157 107h-98v105c16-4 32-6 49-6s33 2 49 6v-105z m18 175c-1 0-2-1-3-2-21-10-42-15-64-15-21 0-43 5-63 15-1 1-3 2-4 2-23 12-45 31-66 55-2 1-3 3-4 4-21 25-40 55-58 91-54 108-85 249-89 401h568c-3-152-34-293-88-401-18-36-38-67-58-91-2-1-3-3-4-4-21-24-44-43-67-55z m288 192c-37-56-82-94-131-112 8 13 16 28 24 44 49 98 81 222 91 355h102c-5-108-35-210-86-287z" horiz-adv-x="1000" />

<glyph glyph-name="gender-filter" unicode="&#xe804;" d="M710 820c-4 4-10 6-17 6l-114 8c-13 0-21-8-23-19l0 0c0-10 8-21 19-23l71-4-88-87c-95 81-239 66-318-29-25-31-42-67-50-107-123-29-198-151-167-274 23-94 104-165 200-173v-96h-71c-12 0-21-8-21-21 0-13 9-21 21-21h71v-94c0-12 9-21 21-21s21 9 21 21v94h71c13 0 21 8 21 21 0 13-8 21-21 21h-71v96c102 10 185 85 202 187 121 29 196 152 167 273-9 33-23 65-46 92l89 89 5-71c0-11 10-19 21-19l0 0c12 0 21 8 21 21 0 0 0 0 0 2l-7 115c-1 3-3 8-7 13z m-466-663c-102 0-186 84-186 186 0 81 53 152 129 177 3-123 105-223 227-223h11c-23-81-96-140-181-140z m185 184c-4 0-11 0-15 0-102 0-185 83-185 185 0 2 0 2 0 4 4 0 11 0 15 0 102 0 185-83 185-185 0-2 0-4 0-4z m117 52c-21-21-46-36-75-44-3 123-105 223-227 223h-11c25 100 125 158 225 133 100-25 158-125 133-225-4-31-23-62-45-87l0 0z" horiz-adv-x="738" />

<glyph glyph-name="down-dir" unicode="&#xe806;" d="M571 457q0-14-10-25l-250-250q-11-11-25-11t-25 11l-250 250q-11 11-11 25t11 25 25 11h500q14 0 25-11t10-25z" horiz-adv-x="571.4" />

<glyph glyph-name="pause" unicode="&#xe807;" d="M197 788h153c40 0 73-32 73-73v-731c0-40-33-73-73-73h-153c-40 0-73 33-73 73v731c0 41 33 73 73 73z m452 0h154c40 0 73-32 73-73v-731c0-40-33-73-73-73h-154c-40 0-72 33-72 73v731c0 41 32 73 72 73z" horiz-adv-x="1000" />

<glyph glyph-name="search" unicode="&#xe808;" d="M643 386q0 103-73 176t-177 74-177-74-73-176 73-177 177-73 177 73 73 177z m286-465q0-29-22-50t-50-21q-30 0-50 21l-191 191q-100-69-223-69-80 0-153 31t-125 84-84 125-31 153 31 152 84 126 125 84 153 31 153-31 125-84 84-126 31-152q0-123-69-223l191-191q21-21 21-51z" horiz-adv-x="928.6" />

<glyph glyph-name="right-small" unicode="&#xe809;" d="M328 595q15 15 36 15t37-15l245-245-245-245q-15-15-36-15-22 0-37 15t-15 37 15 37l120 119-395 0q-22 0-37 15t-16 37 16 37 37 16l395 0-120 118q-15 15-15 37t15 37z" horiz-adv-x="646" />

<glyph glyph-name="couple" unicode="&#xe80a;" d="M425 275c158 0 287 129 287 288s-129 287-287 287c-159 0-288-129-288-288s129-287 288-287z m0 469c99 0 181-82 181-182s-81-181-181-181-182 81-182 181c0 100 82 182 182 182z m661-469c158 0 288 129 288 288s-129 287-288 287-288-129-288-288c0-158 129-287 288-287z m0 469c100 0 181-82 181-182s-81-181-181-181-181 81-181 181c0 100 81 182 181 182z m-979-894v78c0 176 142 319 318 319 177 0 318-144 318-319v-78h106c0 93 5 154-34 245 58 94 159 151 271 151 175 0 318-142 318-318v-78h106v78c0 401-506 576-755 267-248 310-755 134-755-267v-78h107z" horiz-adv-x="1510" />

<glyph glyph-name="intro-icon" unicode="&#xe80b;" d="M1304 655h-582c-10 0-18 8-18 18v121c0 31-26 56-57 56h-591c-31 0-56-25-56-56v-342c0-31 25-56 56-56h65c5 0 10-3 14-6l117-130c7-8 18-12 29-12 4 0 9 0 13 2 16 6 25 20 25 35v93c0 10 8 18 18 18h73c10 0 18-8 18-18v-254c0-39 31-69 69-69h419c10 0 18-9 18-19v-135c0-22 13-41 33-48 6-2 12-3 18-3 15 0 29 6 39 18l154 180c3 4 8 6 13 6h96c39 0 69 31 69 69v481c-1 29-24 51-52 51m-826-2c-23 1-43-34-49-46-1-2-1-5-1-8v-110c0-10-9-18-19-18h-126c-22 0-39-17-39-38v-1c0-17-21-25-32-12l-33 38c-7 7-23 10-27 10-1 0-2 1-3 1h-52c-10 0-18 8-18 18v269c0 10 8 18 18 18h516c10 0 18-8 18-18v-86c0-10-8-18-18-18h-135z m775-498h-95c-15 0-29-7-39-18l-54-63c-11-13-31-5-31 12 0 38-31 69-69 69h-419c-10 0-18 8-18 18v361c0 10 8 18 18 18h686c10 0 18-8 18-17l3-380z m-591 232h282c20 0 38 16 38 37 1 21-16 39-37 39h-282c-20 0-38-16-38-36-1-22 16-40 37-40m419 0c10 0 20 4 27 11 7 7 11 16 11 26s-4 20-11 27c-14 15-39 15-54 0-7-7-11-17-11-27s4-19 11-26c7-7 17-11 27-11" horiz-adv-x="1356" />

<glyph glyph-name="billion" unicode="&#xe80c;" d="M152 792h-30v40h75v-226h-45v186z m112-188c-16 0-27 11-27 25 0 14 11 25 27 25 15 0 26-11 26-25 0-14-11-25-26-25z m140 232c64 0 84-49 84-114 0-66-20-115-84-115s-84 49-84 115c0 65 20 114 84 114z m0-40c-37 0-41-35-41-74 0-40 4-75 41-75 37 0 41 35 41 75 0 38-5 74-41 74z m200 40c64 0 84-49 84-114 0-66-20-115-84-115-64 0-84 49-84 115 0 65 20 114 84 114z m0-40c-37 0-41-35-41-74 0-40 4-75 41-75 37 0 41 35 41 75 0 38-5 74-41 74z m200 40c64 0 84-49 84-114 0-66-20-115-84-115-64 0-84 49-84 115 0 65 20 114 84 114z m0-40c-37 0-41-35-41-74 0-40 4-75 41-75 37 0 41 35 41 75 0 38-4 74-41 74z m-540-564c-16 0-27 11-27 25 0 14 11 25 27 25 15 0 26-11 26-25 0-14-11-25-26-25z m140 232c64 0 84-49 84-114 0-66-20-115-84-115s-84 49-84 115c0 65 20 114 84 114z m0-40c-37 0-41-35-41-74 0-40 4-75 41-75 37 0 41 35 41 75 0 39-5 74-41 74z m200 40c64 0 84-49 84-114 0-66-20-115-84-115-64 0-84 49-84 115 0 65 20 114 84 114z m0-40c-37 0-41-35-41-74 0-40 4-75 41-75 37 0 41 35 41 75 0 39-5 74-41 74z m200 40c64 0 84-49 84-114 0-66-20-115-84-115-64 0-84 49-84 115 0 65 20 114 84 114z m0-40c-37 0-41-35-41-74 0-40 4-75 41-75 37 0 41 35 41 75 0 39-4 74-41 74z m-540-564c-16 0-27 11-27 25 0 14 11 25 27 25 15 0 26-11 26-25 0-14-11-25-26-25z m140 232c64 0 84-49 84-114 0-66-20-115-84-115s-84 49-84 115c0 65 20 114 84 114z m0-40c-37 0-41-35-41-74 0-40 4-75 41-75 37 0 41 35 41 75 0 39-5 74-41 74z m200 40c64 0 84-49 84-114 0-66-20-115-84-115-64 0-84 49-84 115 0 65 20 114 84 114z m0-40c-37 0-41-35-41-74 0-40 4-75 41-75 37 0 41 35 41 75 0 39-5 74-41 74z m200 40c64 0 84-49 84-114 0-66-20-115-84-115-64 0-84 49-84 115 0 65 20 114 84 114z m0-40c-37 0-41-35-41-74 0-40 4-75 41-75 37 0 41 35 41 75 0 39-4 74-41 74z" horiz-adv-x="1000" />

<glyph glyph-name="gift-box" unicode="&#xe80d;" d="M941 565h-387c75 56 152 119 150 177 0 16-7 37-35 55-12 8-24 11-36 11-69 0-111-121-131-199-35 87-110 241-197 241-16 0-32-5-47-16-36-25-49-61-36-102 20-62 97-129 173-167h-336c-10 0-17-8-17-17v-174c0-10 7-17 17-17h290c10 0 17 7 17 17 0 9-7 17-17 17h-273v140h328v-647h-264v443c0 10-7 17-17 17s-17-7-17-17v-460c0-9 8-17 17-17h754c9 0 17 8 17 17v460c0 10-8 17-17 17s-17-7-17-17v-443h-264v647h328v-140h-273c-10 0-17-8-17-17 0-10 7-17 17-17h290c10 0 17 7 17 17v174c0 9-7 17-17 17z m-309 210c6 0 12-2 19-6 16-11 19-21 19-28 1-45-90-115-138-150 22 87 61 184 100 184z m-377-33c-9 27-2 48 22 64 10 7 19 10 28 10 63 0 137-143 176-247-78 14-204 101-226 173z m307-858h-124v647h124c0 0 0-647 0-647z" horiz-adv-x="1000" />

<glyph glyph-name="share" unicode="&#xe80e;" d="M1000 374l-414 476v-286h-91c-271 0-495-228-495-514v-152l38 42c133 153 324 239 519 239h24v-286l419 481z" horiz-adv-x="1000" />

<glyph glyph-name="user-1" unicode="&#xe811;" d="M353 351q139 0 237-99t98-236q0-47-33-80t-79-33l-446 0q-46 0-79 33t-33 80q0 138 98 236t237 99z m-167 279q0 167 167 167 168 0 168-167 0-168-168-168-167 0-167 168z" horiz-adv-x="705" />

<glyph glyph-name="mobile-video-chat" unicode="&#xe812;" d="M512 163v-82h-458v646h458v-98h54v148c0 41-33 73-73 73h-420c-40 0-73-33-73-73v-854c0-41 33-73 73-73h420c41 0 73 33 73 73v240l-54 0 0 0z m-333 643h208c5 0 9-8 9-18s-4-17-9-17h-208c-5 0-9 8-9 17s4 18 9 18z m104-884c-25 0-46 21-46 46s21 46 46 46 47-21 47-46c0-25-21-46-47-46z m480 621l-152-65v25c0 35-29 64-64 64h-225c-35 0-64-29-64-64v-225c0-36 29-64 64-64h225c35 0 64 28 64 64v23l152-65v307z" horiz-adv-x="763" />

<glyph glyph-name="meetstrangers" unicode="&#xe813;" d="M480 850c6 0 48-2 54-4 18-4 36-8 53-11 26-5 49-16 73-27 17-8 34-18 50-28 15-10 29-19 43-30 15-13 30-28 45-43 13-14 25-29 37-44 16-21 29-43 40-65 4-7 7-13 11-19 9-15 18-29 27-44 3-5 7-10 9-16 4-9 7-18 11-27 12-26 20-53 25-81 4-15 6-31 8-47 2-9 3-19 4-28 2-34-3-67-7-101-2-11-5-22-8-33-3-13-5-26-9-39-7-17-14-35-22-52-7-14-15-28-24-41-7-12-14-24-22-34-11-15-23-28-35-41-14-14-27-27-41-40-8-7-17-13-26-19-6-5-13-11-20-15-16-9-34-19-51-28-10-5-20-9-31-13-16-5-33-10-50-15-12-3-25-5-38-8-8-1-16-3-25-5-2-1-30-2-32-2l-51 0c-5 0-28 2-33 3-18 3-36 6-53 11-17 4-32 9-48 15-10 3-19 7-28 11-13 6-27 12-39 19-11 7-21 14-32 21-16 12-33 23-48 37-20 18-39 38-57 61-15 19-27 40-40 61-13 19-24 40-36 60-6 11-12 22-18 33-4 9-8 18-12 27-7 20-15 40-21 61-7 27-12 54-13 82l0 74c1 13 3 26 4 38 1 6 1 12 3 18 4 16 8 32 13 48 6 18 12 36 20 52 8 18 18 35 28 51 6 11 13 22 20 32 11 14 22 28 34 41 16 16 33 32 51 46 17 13 35 25 53 36 9 6 19 11 29 16 11 5 21 10 32 15 10 4 21 8 31 11 16 5 33 9 49 13 7 1 15 2 22 4 1 0 27 2 29 2l62 1z m2-898c105 2 214 48 300 142 86 94 125 206 114 333-10 114-58 210-143 286-95 85-207 123-334 111-105-10-195-53-269-129-87-89-129-198-125-324 7-223 194-418 457-419z m243 443c12 0 24 0 36 0 7 0 9-3 9-9 0-15 0-15-16-15-7 0-15 0-23-1-7 0-9-2-9-9 0-21-5-41-11-60-7-21-17-40-29-59-13-21-31-38-49-55-13-12-27-23-43-30-16-8-31-16-47-21-17-5-35-8-53-10-17-2-34-1-52 0-21 0-42 6-62 13-10 4-19 7-29 12-6 2-11 6-17 9-26 16-48 36-68 59-16 18-28 38-37 60-10 23-18 47-20 73-1 10-3 12-13 12-6 0-12 0-19 0-7 0-10 3-10 14 0 7 3 11 10 11 23 0 46 0 69-1 9 0 11-2 12-10 0-11-2-14-12-14-2 0-4 0-6 0-5-1-8-4-7-9 3-15 5-31 11-46 7-20 15-40 29-57 8-9 15-20 23-29 12-12 24-24 39-33 12-7 24-14 36-21 7-4 15-7 22-8 18-4 35-12 54-11 19 1 38 1 56 1 2 0 5 0 7 1 16 5 33 9 49 16 14 5 26 14 39 21 15 9 28 20 40 34 11 12 21 25 29 38 9 14 17 29 22 44 7 18 12 37 13 56 0 7-2 9-9 10-9 0-9 1-10 10 0 16 2 14 15 14 10 0 20 0 31 0z m-258 262c16 0 32-3 46-9 34-14 51-48 41-82-4-16-14-30-27-40-13-11-26-21-39-32-8-7-14-15-14-26 0-5 2-11 4-15 3-7 3-10-4-13-6-3-12-5-17-7-6-1-10 2-13 6-10 17-13 34-4 54 7 14 17 24 29 34 13 9 26 18 35 31 9 13 9 38-10 50-21 13-55 10-75-5-6-5-12-11-18-16-3-3-6-4-8-1-7 8-14 15-21 23 0 1 0 5 2 7 24 27 59 41 93 41z m-32-290c0 14 14 28 28 28 15 0 29-14 29-29-1-14-15-28-29-28-15 0-28 14-28 29z" horiz-adv-x="970" />

<glyph glyph-name="android-ios" unicode="&#xe814;" d="M120 575l0 0c-25 0-45-20-45-45v-180c0-25 20-45 45-45l0 0c25 0 45 20 45 45v181c0 24-20 44-45 44z m82 22h369c10 0 17 9 15 18-12 58-49 107-99 136l32 57c2 4 1 9-3 11-4 2-9 1-11-3l-32-57c-26 12-55 19-86 19-31 0-60-7-86-19l-32 57c-2 4-7 5-11 3-4-2-5-7-3-11l32-57c-50-28-87-77-99-136-3-9 5-18 14-18z m295 85c0-9-8-17-17-17-9 0-17 8-17 17 0 9 8 17 17 17 9 0 17-7 17-17z m-203 17c9 0 17-8 17-17 0-9-8-17-17-17s-17 8-17 17c0 10 7 17 17 17z m588-740c20 29 32 56 38 74-28 16-83 57-84 141-1 67 39 109 63 128-33 37-76 43-95 43l-1 0c-3 0-6 0-8 0-24 0-49-10-69-18-17-7-32-13-46-13-15 0-30 6-47 13-19 8-39 16-59 16l-1 0c-49-1-95-29-120-73l0 0c-51-89-17-226 41-310 27-40 55-75 86-75l2 0c16 1 27 6 41 11 16 7 37 16 67 16 29 0 49-8 64-15 14-6 26-11 43-11 36 1 61 38 85 73z m-76 548c-34-1-75-23-100-51-21-24-41-65-36-105 0-3 2-5 5-5 2 0 5 0 7 0 34 0 70 19 94 48 26 32 39 72 35 108 0 3-3 5-5 5z m-111-30c1 1 3 3 4 4v50c0 25-20 45-45 45s-45-20-45-45v-157c16-3 22-2 35-8 0 46 28 84 51 111z m-276-196c34 58 95 95 159 96l2 0c3 0 6 0 10 0v183c0 8-7 15-15 15h-376c-8 0-15-7-15-15v-315c0-8 7-15 15-15h67v-106c0-25 20-45 45-45 25 0 45 20 45 45v106h43c4 18 11 35 20 51z" horiz-adv-x="1000" />

<glyph glyph-name="meetpeople" unicode="&#xe815;" d="M491-150c-10 0-51 6-76 11-17 3-34 9-50 13-10 3-20 6-29 10-12 5-25 10-37 17-16 9-33 18-49 28-26 16-48 36-69 58-11 11-21 22-31 33-7 8-13 16-19 25-6 8-11 17-17 26-7 11-14 23-21 35-8 13-16 25-23 39-7 12-14 24-20 37-8 15-16 30-21 46-8 23-13 46-19 70-2 7-3 14-5 22-4 17-3 31-5 46-1 8 0 16 0 24l2 46 3 23c2 8 3 17 5 26 2 9 3 18 6 26 6 19 12 38 19 56 6 15 14 29 21 43 8 15 17 30 27 44 8 13 18 24 28 36 12 14 25 27 38 40 11 10 24 19 36 28 4 4 9 8 14 11 11 7 23 15 35 21 13 8 26 15 39 21 10 5 20 8 30 11 13 5 26 10 39 12 22 5 43 10 66 12 18 3 37 4 56 4 16 0 32-1 48-3 20-3 41-5 60-10 21-6 42-13 62-21 17-7 35-15 51-24 13-7 24-15 36-23 9-6 18-13 27-20 21-16 40-35 58-55 8-9 16-19 23-29 8-11 15-23 23-35 7-11 14-22 20-33 5-7 8-15 12-22 3-5 6-8 9-13 9-16 20-33 28-50 8-16 13-33 19-49 5-14 9-27 13-40 1-6 2-12 3-18 3-13 6-26 9-39 1-3 1-6 1-9 0-29 0-59 0-89 0-5-2-10-4-15-6-29-9-59-21-87-6-17-11-34-19-49-9-20-20-40-32-58-11-16-24-32-37-47-10-12-21-25-33-36-18-16-36-30-56-44-15-11-31-20-48-29-15-8-31-14-47-20-11-5-22-9-34-13-11-3-22-5-34-8-8-1-17-2-26-3-9-2-19-4-28-6-1 0-3 0-4 0-8-1-14-2-23-2l-29-1z m403 539c2 242-198 432-425 435-128 2-239-45-326-139-84-90-124-200-116-323 7-114 53-213 138-290 94-86 206-126 334-116 197 16 396 188 395 433z m-432-213c-24-1-48 4-71 10-12 3-25 8-37 13-8 4-15 8-23 13-9 6-19 13-28 19-21 15-37 34-52 55-12 16-22 35-30 54-5 12-8 26-10 39-3 14-5 29-8 44 0 5-1 11 4 12 6 1 12 0 18-1 1 0 2-3 2-5 3-17 5-34 8-51 4-20 13-38 22-55 15-30 38-52 62-73 10-8 21-14 32-20 7-4 14-8 21-11 2-2 5-3 8-4 6-2 12-4 19-6 9-2 18-4 27-6 17-3 33-4 50-3 7 0 15 2 23 4 12 2 24 5 35 9 9 2 18 5 26 9 12 6 24 12 35 20 15 11 29 24 42 37 12 12 23 27 30 43 4 7 8 14 12 22 4 9 8 18 10 28 3 18 10 36 8 55-1 6 3 9 8 9 3 0 5 0 7 0 7-1 9-3 10-11 0-12-3-24-5-36-3-23-11-44-20-65-9-20-21-37-35-54-13-17-29-31-46-44-10-7-21-13-32-20-9-5-18-9-28-13-9-4-18-7-27-9-22-4-45-7-67-10 0 1 0 1 0 2z m-55 356c-3-17-5-35-10-52-3-13-9-25-21-33-8-5-13-5-21 0-12 9-18 21-21 34-5 19-9 37-8 57 2 22 5 44 16 64 3 6 7 11 12 16 6 5 18 4 24-1 10-8 16-19 19-31 4-18 7-36 10-54z m198 0c-3-16-4-33-7-49-3-13-9-27-22-36-6-4-12-4-18-1-12 6-17 17-22 28-6 17-8 34-9 52 0 25 1 50 12 73 4 7 11 13 17 20 3 4 14 3 18 0 9-6 15-14 19-24 9-20 11-41 10-63 0 0 1 0 2 0z" horiz-adv-x="966" />

<glyph glyph-name="cog" unicode="&#xe816;" d="M571 350q0 59-41 101t-101 42-101-42-42-101 42-101 101-42 101 42 41 101z m286 61v-124q0-7-4-13t-11-7l-104-16q-10-30-21-51 19-27 59-77 6-6 6-13t-5-13q-15-21-55-61t-53-39q-7 0-14 5l-77 60q-25-13-51-21-9-76-16-104-4-16-20-16h-124q-8 0-14 5t-6 12l-16 103q-27 9-50 21l-79-60q-6-5-14-5-8 0-14 6-70 64-92 94-4 5-4 13 0 6 5 12 8 12 28 37t30 40q-15 28-23 55l-102 15q-7 1-11 7t-5 13v124q0 7 5 13t10 7l104 16q8 25 22 51-23 32-60 77-6 7-6 14 0 5 5 12 15 20 55 60t53 40q7 0 15-5l77-60q24 13 50 21 9 76 17 104 3 16 20 16h124q7 0 13-5t7-12l15-103q28-9 51-20l79 59q5 5 13 5 7 0 14-5 72-67 92-95 4-5 4-12 0-7-4-13-9-12-29-37t-30-40q15-28 23-54l102-16q7-1 12-7t4-13z" horiz-adv-x="857.1" />

<glyph glyph-name="fast" unicode="&#xe817;" d="M515 850c-3-8-5-16-8-23-7-19-15-39-22-58-9-23-19-45-27-68-4-9-6-17-10-26-1-3-2-6-4-10 0-2-2-4-2-7 0-1 2-3 2-5 2 1 4 1 6 3 19 21 39 43 59 64 9 10 19 21 30 31-1-3-1-6-2-9-6-17-13-33-20-50-4-12-8-25-13-37-8-20-16-40-24-60-6-17-12-34-19-51-8-22-17-44-25-66-4-10-7-20-11-30-4-9-7-18-11-26-2-4-1-7 3-8 3-1 7-1 10-1 17 0 35-2 53 0 45 5 91 1 137 2 34 1 68 2 101 3 3 0 5-2 8-3-1-2-2-5-3-7-14-16-29-32-43-47-4-4-3-7 2-8 3-1 7-1 10-1 19 0 39 0 58 0 3 0 5-1 8-2-1-2-2-5-4-6-13-14-26-27-38-40-28-31-56-61-84-92-19-21-39-43-59-64-13-15-27-29-40-43-16-18-32-37-48-54-11-12-22-24-33-36-8-7-14-16-21-23-17-19-34-38-52-57-22-24-44-48-66-72-2-3-5-6-7-8-2-2-5-3-7-5-1 0-2 1-3 2 3 7 5 14 7 21 4 15 9 29 14 43 3 10 6 19 9 28 3 9 7 18 10 27 0 2 1 4 0 6 0 4-3 5-5 2-6-6-12-13-18-19-2-3-5-5-7-8-16-17-33-35-48-52-12-13-23-26-35-38-1-2-3-2-5-3 0 2-1 4-1 6 6 18 12 36 18 54 4 12 8 23 12 35 10 29 20 59 29 88 9 26 17 52 26 78 9 28 19 55 28 83 3 9 6 18 9 28 2 8 0 11-8 11-18 0-36 0-54 0-40 1-80 0-120 1-24 0-49 1-73 1-6 0-7 2-4 8 1 2 3 5 5 7 6 6 12 12 18 18 2 1 3 4 2 6-1 2-4 3-6 4-7 1-13 1-20 1-24 0-49 0-73 0-2 0-4 1-6 1 0 2 1 4 2 6 12 13 25 27 37 41 8 8 16 17 24 26 13 13 25 27 37 40 24 26 48 53 73 79 11 13 23 25 35 38 6 7 12 14 19 22 17 19 35 38 52 57 18 19 36 39 55 59 13 14 27 28 40 43 24 26 47 53 71 79 18 19 35 38 53 57 4 4 8 8 13 12 0 1 2 1 4 2z m-243-894c1-1 1-1 2-2 3 3 7 4 10 7 9 10 18 21 27 31 18 20 36 39 54 59 30 33 60 66 90 99 11 12 22 23 33 35 16 18 32 36 49 54 20 22 40 44 60 66 25 26 50 53 74 79 2 2 3 6 3 9 0 1-5 2-7 2-16-1-32-2-47-2-64-1-128-1-192-2-27 0-55-1-82-1-7 0-15 0-22 0-7 1-8 4-5 9 3 8 6 16 9 24 7 17 13 35 19 52 6 16 13 32 19 48 9 23 18 46 26 69 7 19 14 37 21 56 3 8 6 16 9 24 6 16 13 31 19 47 3 6 5 12 7 18 1 1 1 3 1 4 0 1-1 3-2 3 0 1-2 0-3-1-3-3-7-6-10-9-20-22-39-45-59-67-10-10-21-21-30-31-17-19-34-38-50-56-11-12-22-22-33-34-16-18-32-36-48-55-20-22-40-44-61-66-14-16-29-32-44-48-18-19-35-38-53-56-1-2-2-3-3-4-2-5-1-7 5-8 14 0 29-1 43-1 87 0 174-1 261-1 3 0 7 0 11 0 11 0 14-4 10-14-5-15-10-31-15-46-6-19-12-37-18-56-6-19-13-37-19-56-3-8-6-17-9-26-3-11-6-23-10-34-6-18-13-36-19-54-5-15-10-29-14-43-3-8-5-15-7-22z" horiz-adv-x="758" />

<glyph glyph-name="videochat" unicode="&#xe818;" d="M0-18c0 274 0 548 0 822 0 4 1 9 4 13l0 0c8 14 14 22 29 30 5 3 9 3 12 3 1 0 2 0 3 0 487 0 1422 0 1461 0 2 0 13-2 18-6 0 0 0 0 0 0 6-4 10-8 15-12 16-13 21-30 20-50-1-23 0-24 23-24 25 0 45-7 59-30 0 0 0-1 1-1 5-6 7-14 7-22l0-813c0-1-1-2-1-3 0-2-1-4-2-6-1-2-8-11-12-16-2-2-4-3-6-5-7-4-22-11-39-11-450 0-900 0-1350 0-31 0-63-1-94 0-20 0-38 8-47 26-6 13-10 28-11 42-2 17-2 18-20 19-26 1-55 16-65 28-1 1-2 2-2 4-2 3-3 7-3 12z m782-12c232 0 465 0 697 0 7 0 14-1 21 0 20 1 31 13 31 33 0 259 0 518 0 776 0 25-11 37-37 37-468 1-936 1-1405 1-7 0-13 0-20 0-17-1-30-9-34-22-2-8-4-17-4-25 0-250 0-500 0-750 0-39 14-51 50-51 234 1 467 1 701 1z m-492 112c-37 0-75 0-112 0-12 0-15 3-15 15 0 46 0 92 0 138 0 13 2 15 15 15 74 0 149 0 223 0 13 0 16-2 16-15 0-46 0-92 0-137 0-13-3-16-16-16-37 0-74 0-111 0z m386 312c0 45 0 90 0 135 0 4-1 9 1 12 1 2 6 5 8 4 22-12 43-24 65-37 24-14 48-28 73-42 31-19 63-37 95-56 8-4 15-8 22-13 5-3 5-7 0-10-28-16-56-32-84-48-26-15-52-30-79-46-24-14-48-27-72-41-5-3-10-7-16-10-9-5-12-3-13 8 0 14 0 30 0 45 0 33 0 66 0 99z m31 1c0-29 0-57 0-85 0-16 2-17 16-11 1 1 3 2 4 2 49 28 97 56 146 84 8 5 8 9 1 13-3 2-7 5-10 7-19 11-39 21-58 32-29 17-57 34-85 50-11 6-14 4-14-8 0-28 0-56 0-84z m682 330c19 0 37-18 37-37 0-23-17-41-39-41-20 0-37 18-37 39 0 23 16 39 39 39z" horiz-adv-x="1652" />

<glyph glyph-name="genderfilter" unicode="&#xe819;" d="M0-80c0 303 0 607 0 910 0 13 2 20 12 20 227 0 454 0 681 0 4 0 7-3 9-6 0-1 0-1 0-1 2-4 4-8 4-11 1-18 0-35 0-53 0-9 2-11 11-11 16 0 32-1 48-1v-916c-6 0-12-1-18-1-219 0-438 0-657 0-5 0-9 0-14 0-8 0-9 2-9 10 0 10 0 21 0 31 0 6-4 10-10 10-11 0-22 0-32 0-12 0-17 0-19 2-3 3-6 6-6 17z m40 453c0 0 0 0 0 0 0-142 0-283 0-425 0-3 0-5 0-8 1-5 4-7 9-7 2 0 4 0 6 0 161 0 321 0 481 0 18 0 18 1 18 18 0 28 0 56 0 84 0 16 10 24 25 24 27 0 54 0 81 0 10 0 13 3 13 13 0 3 0 6 0 8 0 237 0 474 0 711 0 3 0 6 0 9 0 11-3 14-14 14-4 0-9 0-13 0-173 0-346 0-518 0-25 0-50 0-75 0-11 0-13-1-13-13 0-143 0-285 0-428z m548-380c0 0 0 0 0 0 0-6 0-13 0-20 0-2 2-5 2-7 3 1 5 2 7 4 2 1 3 3 4 4 13 13 26 26 38 40 2 2 3 5 3 8-1 1-5 2-8 2-11 1-23 0-35 1-8 0-11-2-11-11 0-7 0-14 0-21z m-50 720c7 0 14 0 20 0 11 0 21-2 26-13 7-16 15-31 22-47 3-10-3-20-12-22-8-3-18 4-22 12-1 3-4 7-6 7-3-1-7-4-9-7-6-7-10-16-15-23-3-5-3-9 1-14 6-10 13-20 13-32 0-6 0-12 0-18-1-17-8-31-20-43-11-13-26-18-41-22-8-2-18 1-27 2-13 2-22 9-32 17-17 12-22 29-24 48-2 31 13 53 38 69 14 9 29 8 44 6 9-1 14 1 19 8 5 9 11 18 16 27 3 4 1 7-5 9-5 1-10 2-15 5-8 3-11 10-10 18 2 7 9 13 17 13 7 0 15 0 22 0z m-16-150c-1 23-20 37-42 37-17 0-32-20-31-40 0-15 16-34 38-33 17 0 36 20 35 36z m-323 164c7 1 19 0 21 0 20-1 40-13 54-33 8-11 11-24 11-37 1-12 0-26-9-37-5-7-8-13-15-19-7-6-16-8-23-12-5-2-9-10-9-15 1-4 0-8 0-12 0-8 3-12 12-11 9 0 15-2 21-9 4-5 5-14 1-19-5-6-12-10-20-10-12 0-13-2-13-13-1-10-5-16-14-16-11-1-19 5-21 14 0 2 0 3 0 5 0 8-2 9-10 10-6 1-11 3-16 5-8 5-9 11-7 19 1 6 10 13 16 13 17 2 17 2 17 19 0 14-3 18-17 23-6 3-12 7-17 12-17 19-23 41-18 67 4 22 17 38 36 48 9 4 11 5 20 8z m51-70c0 16-16 36-37 36-18 0-36-17-36-37 0-19 16-36 36-36 21 0 37 20 37 37z m109-298c-85 0-170 0-255 0-7 0-13 1-17 8-5 8 0 20 10 22 3 1 5 1 8 1 170 0 341 0 511-1 4 0 7 0 10-2 8-3 11-11 10-16-2-6-12-12-19-12-86 0-172 0-258 0z m-196-237c-6 5-11 10-16 15 0 0 2 4 3 6 15 15 31 31 46 46 4 4 4 6 1 10-16 16-32 31-48 47-1 2-3 6-2 7 4 5 9 9 14 13 1 1 6-1 8-3 13-12 27-26 40-39 2-2 4-4 6-6 4-4 7-4 12 1 14 15 30 30 45 45 4 5 8 4 11 0 2-2 4-3 5-5 5-6 5-9 0-14-15-14-29-28-43-42-6-7-6-10 0-16 14-14 28-27 41-41 3-3 7-8 5-10-2-5-7-10-12-13-2-1-8 2-10 4-14 14-28 28-42 42-5 6-9 6-14 1-14-14-28-28-42-42-2-2-5-4-8-6z m259 59c6 5 10 10 16 14 0 1 3 0 5-2 8-8 16-16 24-25 5-5 11-5 15 1 14 19 28 38 42 57 11 14 21 28 32 42 2 2 7 3 9 3 4-3 9-6 12-10 1-1 1-5 0-6-11-15-21-29-32-43-12-16-24-32-36-48-9-11-17-23-25-34-4-5-7-5-11-1-14 14-28 28-43 42-2 3-4 6-8 10z" horiz-adv-x="765" />

<glyph glyph-name="countryfilter" unicode="&#xe81a;" d="M1480 558c-13-2-22-12-31-20-8-6-16-11-24-17-3-2-6-6-6-10-2-10-3-21-3-31 0-13 4-17 16-21 3-1 6-4 7-7 0-3-3-7-5-8-14-7-28-14-42-20-7-3-14-6-20-10-10-6-14-14-13-26 1-14 3-29-5-42-4-5-5-14-16-4 11-20 8-37 2-55-1-2-3-4-6-5-8-3-10-9-4-16 6-10 13-19 19-29 4-6 2-20-4-24-6-5-9-8-7-17 1-3-8-11-13-13-12-4-19-11-24-23-1-3-4-6-7-7-10-2-15-9-17-16-3-14-13-22-21-32-10-13-20-26-28-41-3-5-2-14-1-21 1-7 4-14 6-21 3-15 11-26 20-38 5-7 8-15 12-23 2-3 3-6 4-9 11-14 17-31 19-49 2-11 1-23 0-35-1-5-8-13-11-13-6 0-14 5-17 10-4 7-8 13-17 16-1 0-3 3-4 5-2 3-4 6-6 8-19 13-29 32-34 53-2 7-6 9-13 6-18-7-34 1-38 20-2 14-7 17-21 17-3 0-8 2-10 4-13 15-31 16-48 12-15-4-29-3-43-4-5 0-15-2-16-5-3-8-9-17 1-26 2-1 2-6 3-10-4 0-7 0-11 0-5 0-10 1-15 0-14-4-27-8-38 4-2 2-5 3-8 3-16 2-32 4-47 5-21 2-37-6-51-21-4-4-10-8-15-11-13-8-26-15-39-22-8-5-12-10-12-19 0-14 0-27 1-41 1-6-1-9-6-8-21 4-43 8-54 30-1 1-2 3-2 5 1 17-12 27-20 39-5 7-7 16-12 23-2 4-7 8-11 9-13 6-26 9-39 14-5 3-9 2-12-2-10-14-11-14-25-5-2 2-5 3-7 3-13 5-20 14-21 28 0 13-6 23-17 31-6 5-12 11-16 18-6 7-12 12-21 13-7 1-14 3-20 3-6 0-11-4-16-6-4-2-9-7-13-6-39 6-79 12-113 35-14 10-33 16-43 28-15 17-33 11-49 15-4 1-7 1-10 2-8 3-14 6-13 17 0 11-5 20-15 27-9 6-17 15-25 23-7 5-15 10-22 15-3 2-7 6-7 10-2 8-6 13-15 14-11 2-22 4-28 16-3 5-4 12-7 18-2 6-4 12-8 17-4 5-10 10-14 15-10 12-23 18-36 25-11 5-15 13-14 23 2 17-4 30-12 44-2 4-3 8-4 13-3 21-6 42-9 63-2 8-7 16-9 25-2 12-3 25-4 37-1 8 2 17-9 19 0 6 0 12 0 18 3 3 6 5 9 8 3 6 5 12 8 18 5 7 7 14 6 23-2 17 2 34 11 48 25 42 43 87 38 139-1 12 6 21 11 30 6 10 16 13 27 10 6-1 13-2 19-2 5 0 10 3 8 9 13 0 26 0 40 0 3-3 6-7 9-8 38-9 76-18 114-25 35-8 70-14 104-21 11-2 22-5 32-6 37-4 74-8 111-12 24-2 48-6 73-7 30-2 60-2 90-1 5 0 11 2 15 5 18 13 38 10 52-7 4-4 9-7 14-8 17-5 35-10 53-12 17-2 35-5 50-17 4-3 11-2 16-2 11 0 20-4 27-13 2-4 9-9 13-7 21 7 40-1 59-8 5-3 9-9 13-14 5-7 9-14 13-22 4-9 8-18 13-27 2-5 4-11 7-16 6-9 12-17 17-26 3-6 3-13 6-20 1-5 5-9 10-4 4 4 9 11 9 17 0 15 6 25 20 30 7 3 15 4 23 5 9 2 16 4 16 16 0 5 5 10 8 15 3 6 8 10 11 15 10 17 25 24 43 27 13 2 25 5 37 10 10 4 20 11 20 23 1 17 2 33 11 47 6 10 13 20 22 24 17 7 35 10 52 0 11-5 17-12 20-23 3-14 9-27 21-36 18-14 25-39 12-57-13-18-31-32-47-46-9-7-10-9-2-16 10-8 17-17 15-31 0-3 0-6 0-9 1-15-3-20-17-26-2 0-4-4-6-6 3-1 7-4 9-3 4 2 7 7 11 9 17 6 18 20 17 35-1 15 5 29 10 42 1 1 2 3 3 3 7 2 14 5 21 5 4 0 10-3 12-7 5-8 8-18 11-27 3-11 18-25 28-27 1-7 1-15 1-23z m-578 132c-4-1-6-1-7-2-10-6-20-13-30-19-8-5-15-5-24-2-4 1-10 0-15 1-2 0-4-1-5 0-1 1-1 4 0 5 10 13 17 30 37 31 1 1 4 3 4 5 0 1-2 4-4 5-7 1-13 1-20 1-6 0-12 1-18 2-13 2-25 7-37 8-12 0-22 2-29 13-3 6-8 7-15 3-4-2-8-3-13-3-27 1-53 2-80 3-33 2-65 2-97 4-34 3-68 8-102 13-42 6-83 14-123 21-20 4-38 8-57 12-22 5-44 10-67 15-10 2-20 4-30 8-12 3-12 4-14-8-3-10-9-14-19-11-7 2-12 6-18 8-4 2-7 3-11 5-1-4-3-8-3-12 0-11 2-22 2-32 1-13-4-25-9-36-11-28-20-57-37-83-5-7-8-19-6-28 5-17-3-31-11-44-5-8-6-14-4-23 2-5 2-11 1-17-2-12-3-22 4-34 7-11 8-25 12-37 2-8 3-16 5-23 1-5 3-11 1-14-3-8-2-14 2-21 9-14 18-29 15-47-1-7 3-10 10-12 6-2 12-5 17-9 10-9 18-20 29-28 10-8 15-17 14-29 0-9 4-12 11-14 9-2 18-3 26-5 9-1 18-1 24-4 18-10 34-22 50-33 13-8 26-17 40-23 24-10 51-13 77-15 4 0 9 3 11 7 3 5 6 6 12 5 8-1 16-3 25-4 10 0 17-5 22-13 5-6 9-15 16-18 13-6 17-17 18-29 2-14 9-23 20-30 18-10 21-10 32 7 6 10 14 11 23 9 17-5 31-14 39-30 6-13 9-26 19-36 9-8 14-18 14-31 1-6 6-13 12-17 8-6 17-10 26-14 5-2 11-1 17-1 0 5 1 11 1 16-1 28-1 44 27 57 15 7 31 16 43 28 17 16 35 22 57 18 7-1 15-4 21-1 15 8 23 0 33-9 3-3 10-6 15-6 14-2 19 12 29 17 1 1 1 6 0 8-6 7-3 13 4 16 12 4 25 6 38 9 0 0 1 0 1 0 9-1 18-2 27-2 18 0 35 4 50-10 7-6 15-3 21 2 13 11 20 11 32-1 4-4 9-9 14-12 12-6 16-12 15-25-3-16 8-27 12-41 2-7 8-13 13-18 9-8 19-16 29-24 1-1 3-4 3-6 2-6 7-10 13-8 5 2 13 7 14 11 3 15 4 30-3 45-5 10-11 20-16 31-4 8-6 17-11 24-15 18-25 37-30 60-5 25 3 47 21 65 11 11 22 22 28 37 2 8 6 15 15 17 4 1 7 4 8 7 7 14 18 22 31 28 5 3 6 6 1 11-4 3-3 6 1 10 5 7 10 13 15 21 1 2 0 8-2 10-6 8-8 20-19 24-2 1-3 6-4 10-3 8-4 17-8 24-7 12-5 24-4 37 0 1 1 3 2 5 1-1 3-1 4-2 0-4 1-9 1-14-1-14 0-16 14-21 2 0 3-2 5-3 7-6 9-1 10 5 2 11-1 20-9 28-4 4-9 8-5 16 4-2 8-3 11-4 6-2 12 0 13 6 1 10 3 21 1 31-2 9-1 17 4 22 8 8 17 14 26 19 11 6 23 11 34 17 12 7 12 11 1 20-3 3-6 6-7 9 0 12 1 24 1 36 0 7 4 12 10 16 6 3 12 9 17 14 5 5 10 10 16 15 5 4 12 8 17 14 3 3 5 9-1 12-19 10-24 29-29 47-2 7-4 15-12 14-9-1-20-4-26-10-6-6-8-18-10-27-1-5 3-12 2-17-2-19-15-32-30-38-17-8-35-11-53-14-8-2-15-4-20-12-3-6-7-12-12-18-5-6-6-11-4-18 3-6 1-11-4-14-5-4-11-6-17-7-9-2-18-3-27-4-6-1-10-6-8-12 3-10-3-15-8-21-16-18-37-29-57-41-11-6-20-4-29 1-3 1-6 8-5 11 2 7 7 14 10 22 2 5 4 10 3 15 0 6-2 12-5 17-2 4-4 10-7 10-4 0-8-4-12-6-3-2-6-3-9-4-1 4-3 10-1 12 9 8 6 20 7 30 0 3-3 7-6 9-5 4-12 6-18 9-6 2-11 1-15-5-5-7-9-14-15-19-12-12-19-39-11-54 11-18 8-35-3-52-5-7-13-9-17-3-5 6-9 13-12 21-4 16-6 33-1 50 2 7 3 19 0 23-8 9-6 14 0 21 1 2 2 6 3 8 2 4 4 8 7 9 15 6 28 15 45 13 4-1 8-1 11 1 4 2 9 6 9 9 0 7-7 6-12 6-4 0-9 0-11 2-5 5-8 4-13 2-18-6-35-17-55-3-6 5-10 8-5 16z m-105-285c0-89-71-160-161-158-88 2-157 69-156 161 0 87 66 149 146 155 100 8 173-74 171-158z m-33-1c4 70-61 124-113 127-85 5-141-58-139-128 1-68 52-123 125-124 70-1 126 53 127 125z m-125 39c24 0 38-16 38-40 0-18-21-38-40-37-18 0-38 20-37 40 1 22 14 39 39 37z" horiz-adv-x="1480" />

<glyph glyph-name="east" unicode="&#xe81b;" d="M6 610c0 75 0 149 0 224 0 12 4 16 17 16 106 0 211 0 317 0 7 0 10-3 10-10 0-32 0-64 0-96 0-5-3-7-8-7-66 0-132 0-199 0-13 0-15-1-14-15 0-14 0-28 0-41 0-11 2-14 12-14 64 0 127 0 190 0 14 0 16-1 16-16 0-27 0-54 0-81 0-12-4-16-16-15-63 0-127 0-191 0-7 0-11-4-11-10-1-18-1-35 0-53 0-7 4-9 11-9 19 0 38 0 57 0 48 0 96 0 144 0 7 0 9-2 9-9 0-19 1-39 1-58 0-2 0-3 1-5 1-2 3-3 4-5 1 2 3 3 4 5 7 20 14 40 21 60 12 29 24 59 35 88 10 27 20 54 31 82 11 28 22 56 33 84 7 16 12 33 18 48 8 22 15 43 24 64 3 9 9 14 20 13 37-1 73 0 110 0 11 0 15-3 19-13 7-18 13-36 19-53 8-20 16-39 24-59 7-20 14-40 22-59 4-12 10-24 14-36 5-12 9-26 14-38 4-12 9-23 14-35 7-19 15-39 22-59 8-20 16-40 24-59 7-18 14-36 21-54 3-10 0-14-10-14-37 0-74 0-110 0-11 0-17 4-20 15-5 14-10 29-16 44-5 14-8 15-23 15-48 0-95 0-143 0-15 0-14-1-19-15-4-12-10-23-15-35-1-3-2-6-2-10-3-9-8-14-18-14-149 0-299 0-449 0-11 0-15 3-15 16 1 74 1 149 1 223z m762-212c0 0 0 0 0 0 9 0 18 0 27 0 10 0 12 4 9 13-7 20-14 40-22 60-4 10-8 20-11 29-8 19-16 38-23 57-5 12-9 25-14 37-7 19-15 38-22 57-9 23-18 46-27 69-3 10-7 19-11 29-7 19-14 39-21 58-3 7-6 15-16 15-27 0-54 0-81 0-3 0-8-2-9-5-4-6-8-13-10-20-8-20-15-40-22-59-11-29-23-57-34-85-3-10-7-20-11-30-7-20-15-40-23-60-7-19-15-38-22-57-4-11-8-23-12-34-8-20-17-40-24-61-4-9 0-13 10-13 16 0 33 0 49 0 9-1 14 2 18 9 2 4 3 9 5 13 6 15 12 31 19 46 2 3 7 5 11 5 62 1 125 0 187 1 12 0 18-5 22-16 6-18 13-35 20-51 1-3 6-6 10-7 9-1 18 0 28 0z m-735 212c0 0 0 0 0 0 0-65 0-129 0-194 0-15 3-18 18-18 87 0 175 0 262 0 7 0 10 4 11 10 0 9 0 17 0 26 0 27-2 22-22 22-62 0-125 0-187 0-10 0-12 2-12 13 0 32 0 65 0 98 0 2 0 4 0 7 1 6 4 9 11 9 64-1 128-1 191-1 10 0 14 4 14 14 0 10 0 20 0 30 0 12-3 15-15 15-63 0-126 0-189 0-11 0-13 1-13 12 0 32 0 64 0 96 0 14 1 15 14 15 66 0 131 0 197 0 6 0 10 2 10 8 0 13 1 27 0 41 0 6-3 10-11 10-87 0-175 0-263 0-12 0-16-4-16-16 0-66 0-131 0-197z m148-760c-21 2-38 1-54 5-35 8-69 17-97 40-8 6-17 12-25 19-7 6-7 11-1 19 12 16 23 33 35 50 6 10 11 9 19 2 19-16 39-30 62-38 27-10 54-15 82-13 20 2 40 6 54 22 23 24 15 49-11 62-29 15-60 20-91 28-27 6-54 14-78 27-21 11-40 25-51 48-15 33-18 67-6 102 7 23 21 42 39 57 10 8 21 14 33 19 14 7 28 13 42 14 24 4 48 4 71 4 34 0 65-8 95-23 17-9 32-20 48-31 6-4 5-9 2-14-13-18-26-36-39-53-7-9-10-9-19-2-17 15-37 25-58 32-20 6-41 11-62 9-12-1-25-1-36-6-20-9-37-28-25-54 3-5 8-11 13-13 15-6 30-12 45-16 21-6 42-10 63-16 27-8 55-16 78-32 17-11 32-25 41-44 10-20 15-41 14-63-2-36-12-68-39-95-25-24-54-36-86-41-20-3-41-3-58-5z m378 102c0 27 0 54 0 82 0 8-2 17-9 23-3 3-5 8-7 12-17 26-34 51-51 77-7 12-13 24-21 36-10 15-20 29-30 44-14 22-28 44-43 67-2 3-4 5-7 8-3 4-2 7 3 8 3 0 7 0 10 0 28 0 55 0 83 0 6 0 10-2 14-9 12-20 24-39 37-59 7-12 14-25 22-37 12-19 24-37 36-56 1-2 2-4 3-7 4-9 9-9 15-1 5 8 10 15 15 23 13 22 25 44 38 66 15 24 30 47 45 71 3 6 8 9 14 9 30 0 59 0 88 0 3 0 5-2 8-3-1-2-2-5-3-7-15-24-31-48-46-72-16-24-31-48-46-72-13-20-25-39-38-59-11-16-22-33-32-49-3-4-3-10-3-15 0-54 0-109 0-163 0-6-2-9-8-9-26 0-52 0-77 0-7 0-11 3-11 11 1 27 1 54 1 81 0 0 0 0 0 0z m37 578c-25 0-50 0-76 0-10 0-13 4-8 14 5 10 9 21 12 32 8 21 15 43 22 65 8 21 16 43 24 64 7 20 14 40 20 61 2 3 4 5 5 8 3-2 6-4 7-7 6-16 12-33 18-49 4-13 9-25 13-37 4-13 9-26 13-39 5-13 10-26 14-39 4-11 8-22 13-33 3-8 6-17 9-25 4-11 1-15-11-15-25 0-50 0-75 0z m1 26c0 0 0 1 0 1 12 0 25-1 38 0 8 0 11 5 9 12-7 19-14 38-21 57-8 20-15 40-23 60-1 2-3 3-5 5-1-2-3-4-3-6-4-9-7-18-10-28-5-15-10-30-15-45-5-14-11-27-15-41-4-11-1-14 10-15 12 0 23 0 35 0z" horiz-adv-x="847" />

<glyph glyph-name="camtocam" unicode="&#xe81c;" d="M1127 850c2-2 4-5 7-6 14-3 25-11 31-25 3-6 5-13 5-20 1-9 1-17 1-26 0-11 2-12 12-12 11-1 22-2 32-6 19-7 25-24 25-43 0-137 0-275 0-412 0-54 1-108 0-162 0-31-17-47-47-49-7-1-13 0-20 0-256 0-513 0-770 0-5 0-11-3-14-7-61-60-122-121-183-183-16-15-31-30-46-46-2-1-5-2-7-3-1 2-3 5-2 8 2 27 4 53 6 80 2 15 3 29 4 44 0 2-1 4-1 7-4-2-7-3-8-5-27-26-53-53-79-79-3-3-6-5-10-7 0 0-1 0-2 1 1 9 1 18 2 27 1 16 3 31 5 47 2 26 4 53 7 80 2 28 4 56 7 84 0 3 0 7 0 11 0 6-4 9-10 9-6 0-12 0-18 0-27-2-54 24-54 53 1 195 1 391 1 587 0 22 15 42 36 47 4 1 7 4 11 6 359 0 719 0 1079 0z m-541-25c-175 0-350 0-525 0-23 0-40-12-40-40 1-191 1-382 1-573 0-20 12-33 32-34 14 0 29 0 43 0 6 0 9-1 8-9-3-34-6-69-9-103-3-33-6-67-9-100 0-3 2-6 3-9 2 1 5 3 7 5 1 1 2 2 3 3 68 68 136 136 204 204 6 7 13 9 23 9 198 0 396 0 594 0 64 0 129 1 193 0 22 0 37 16 37 36-1 115-1 231-1 346 0 77 0 155 0 232 0 5 0 10-3 15-7 13-18 18-33 18-176 0-352 0-528 0z m-224-376c-65 0-129 0-194 0-8 0-11 3-11 11 0 81 0 163 0 244 0 8 3 10 11 10 129 0 259 0 388 0 12 0 13-1 13-12 0-80 0-160 0-240 0-11-2-13-13-13-65 0-129 0-194 0z m-36 183c-1-3-3-7-3-10 0-29 0-59 0-88 0-2-1-4 0-5 2-2 5-4 6-3 17 9 33 19 49 28 10 6 20 12 30 18 2 1 6 3 6 5 0 3-2 6-5 8-25 15-51 29-76 44-2 1-4 2-7 3z m514-95c55 0 110 0 165 1 7 0 12-2 12-10 0-10-3-12-12-12-110 0-220 0-329 0-9 0-11 2-11 12 0 7 3 10 11 10 54-1 109-1 164-1 0 0 0 0 0 0z m1 165c55 0 109 0 164 0 9 0 11-2 11-11 0-9-2-11-11-11-110 0-220 0-330 0-10 0-10 5-10 12 0 6 2 10 10 10 55 0 111 0 166 0 0 0 0 0 0 0z m-1-248c55 0 110 0 165 0 9 0 11-3 12-10 0-9-3-11-12-11-110 0-220 0-330-1-8 0-10 5-10 11 1 6 0 12 9 12 55-1 111-1 167-1-1 0-1 0-1 0z m0 145c-55 0-110 0-165 0-9 0-10 4-10 11 0 6 1 11 10 11 110-1 220-1 330-1 9 0 12-2 12-11 0-8-3-10-12-10-55 0-110 0-165 0 0 0 0 0 0 0z m-86-227c26 0 51 0 77 0 11 0 15-6 11-17 0-1-3-3-5-4-3-1-6 0-9 0-51 0-102 0-153 0-9 0-10 4-10 10 0 7 1 12 9 11 27 0 54 0 80 0 0 0 0 0 0 0z" horiz-adv-x="1240" />

<glyph glyph-name="cancel" unicode="&#xe81d;" d="M724 112q0-22-15-38l-76-76q-16-15-38-15t-38 15l-164 165-164-165q-16-15-38-15t-38 15l-76 76q-16 16-16 38t16 38l164 164-164 164q-16 16-16 38t16 38l76 76q16 16 38 16t38-16l164-164 164 164q16 16 38 16t38-16l76-76q15-15 15-38t-15-38l-164-164 164-164q15-15 15-38z" horiz-adv-x="785.7" />

<glyph glyph-name="key" unicode="&#xe81f;" d="M234 584c-129 0-234-105-234-234s105-234 234-234 233 105 233 234c0 129-105 234-233 234z m-85-301c-37 0-67 30-67 67 0 37 30 67 67 67 37 0 67-30 67-67 0-37-30-67-67-67z m759 173h-447c11-22 18-46 21-71h397v-17h-395c0-6 0-12 0-18 0-45-12-87-32-123h104l69 69 53-53 56 56 53-53 56 56 53-53 104 104v13l-92 90z" horiz-adv-x="1000" />

<glyph glyph-name="video" unicode="&#xe821;" d="M927 223v-125c0-33-29-61-65-61h-683c-36 0-65 28-65 61v504c0 33 29 61 65 61h682c36 0 65-28 65-61v-122m19 5l257 109 0-487-257 109v269z" horiz-adv-x="1316" />

<glyph glyph-name="unlock" unicode="&#xe824;" d="M870 415h-571v150c0 110 90 200 201 200 96 0 179-68 197-162 4-23 26-38 50-34 23 5 38 27 33 50-26 134-144 231-280 231-157 0-285-128-285-285v-150h-85c-23 0-42-19-42-43v-480c0-23 19-42 42-42h740c23 0 42 19 42 42v481c0 23-19 42-42 42z m-43-480h-654v395h654l0-395 0 0z m-327 64c74 0 134 60 134 133s-60 134-134 134-134-60-134-134 60-133 134-133z m0 183c27 0 49-22 49-50 0-27-22-49-49-49s-49 22-49 49c0 28 22 50 49 50z" horiz-adv-x="1000" />

<glyph glyph-name="upgrade-now" unicode="&#xe825;" d="M504 849c-19 0-38-8-54-22l-43-37c-17-17-42-23-65-20l-57 9c-43 6-80-17-91-57l-14-54c-9-23-23-43-46-52l-51-22c-37-17-57-60-46-100l17-54c9-23 3-46-8-66l-32-48c-23-34-17-80 15-106l42-37c17-17 29-39 29-62l0-57c0-40 31-74 71-80l57-9c23-3 46-17 57-37l31-48c23-37 66-49 103-32l51 26c23 12 46 12 69 0l51-26c37-17 80-2 102 32l32 48c11 20 34 34 57 37l57 9c42 6 71 40 71 80l0 57c0 25 11 48 28 62l43 37c31 26 37 72 14 106l-31 48c-11 20-14 46-9 69l18 54c11 40-9 80-46 97l-51 25c-23 9-40 29-46 52l-14 54c-12 37-51 62-91 57l-57-9c-23-3-49 3-66 20l-43 37c-15 13-34 19-54 19z m0-270l74-148 163-25-117-117 26-163-146 77-148-77 29 163-120 117 165 25 74 148z" horiz-adv-x="1009" />

<glyph glyph-name="ok" unicode="&#xe826;" d="M933 534q0-22-16-38l-404-404-76-76q-16-15-38-15t-38 15l-76 76-202 202q-15 16-15 38t15 38l76 76q16 16 38 16t38-16l164-165 366 367q16 16 38 16t38-16l76-76q16-15 16-38z" horiz-adv-x="1000" />

<glyph glyph-name="plus" unicode="&#xe827;" d="M729 454q44 0 74-31t31-73-31-73-74-30l-208 3 0-212q0-43-30-73t-75-31-73 31-30 73l3 212-212-3q-44 0-74 30t-30 73 30 73 74 31l212 0-3 209q0 42 30 73t73 31 75-31 30-73l0-209 208 0z" horiz-adv-x="834" />

<glyph glyph-name="globe-o" unicode="&#xe828;" d="M24 545c-49-123-47-257 4-378 52-123 149-219 273-269 60-24 123-37 188-37 0 0 0 0 0 0 133 0 259 52 353 147 95 94 147 220 147 353 0 134-52 260-147 354s-220 146-353 146c0 0 0 0 0 0-199 0-378-117-458-298l-7-18z m832-334l-63 124v59c0 9-4 18-12 23l-49 33c-6 4-14 6-22 4l-56-14-91 39-12 85 31 30h71l24-36c4-6 11-11 19-12l98-16c4-1 9-1 13 1l80 27c67-135 60-296-17-424l-12 11v54c0 4-1 8-2 12z m-595 139c0 0 0 0 0 0h98l41-68c5-8 14-13 24-13h31l-8-40-59-60c-5-5-8-12-8-19v-35l-54-41c-7-5-11-13-11-22v-43l-1 0-25 65v157c0 13-10 25-22 27l-69 14-23 47v31l46 46 15-31c5-9 14-15 25-15z m48 418l34-23c3-2 7-3 11-4l66-11-2-5-36-11c-6-3-11-7-15-12l-45-76-71-42-108-16c-14-2-24-13-24-27v-49c0-7 3-14 8-20l25-24v-2l-47 31-22 66c45 101 125 180 226 225z m-182-387c-5-5-8-12-8-20v-48c0-5 1-9 3-13l32-65c4-8 11-13 20-15l59-11v-141c0-3 1-7 2-10l33-81c0-1 0-1 0-2-16 10-31 20-46 31-139 104-204 280-168 448l1-4c2-6 6-11 11-14l70-46-9-9z m215-438c15 0 28 12 28 27v68l54 41c7 5 11 13 11 22v37l57 57c4 4 6 9 8 14l16 82c3 15-7 29-22 32-2 1-4 1-5 1h-50l-41 68c-5 8-14 13-23 13h-97l-25 50c-4 8-12 14-20 15-9 2-18-1-25-8l-1-2c-1 7-3 14-8 18l-25 25v13l91 13c3 1 7 2 10 4l81 48c4 3 8 6 10 10l43 73 40 13c8 2 14 9 17 17l16 49c3 7 2 15-1 21-3 7-9 12-16 14-2 1-3 1-4 1l-79 14c82 20 170 17 251-11l-4-2h-59c-10 0-20-6-25-15l-32-65c-4-7-4-14-2-22 2-7 7-12 14-16 1 0 2-1 4-1l35-12c-5-1-10-4-14-7l-49-49c-6-6-9-15-7-24l16-114c1-9 8-17 16-21l114-49c6-3 12-3 18-1l53 13 27-18v-50c0-4 1-9 2-13l63-124v-59c0-7 3-14 8-19l27-27c-71-91-173-149-287-166-73-10-146-2-214 22 2 0 4 0 5 0z m454 642l-79 13-26 39c-5 8-14 13-23 13h-52l35 8 41-13c1-1 2-1 3-1l82-17c7-1 14 0 20 4l29 20c12-14 23-29 33-45l-63-21z m-20 99l-69 14-47 15c-4 2-10 2-15 1l-57-14-11 3 11 21h47c0 0 0 0 0 0 5 0 9 1 13 3l51 26c32-17 61-38 88-62l-11-7z" horiz-adv-x="1000" />

<glyph glyph-name="star-o" unicode="&#xe829;" d="M525 847l-45-90-118-236-365-50 264-258-63-359 327 170 327-170-63 359 257 258-358 50z m0-224l97-194 212-30-153-152 37-211-193 100-193-100 37 211-156 152 215 30z" horiz-adv-x="1050" />

<glyph glyph-name="close" unicode="&#xe82a;" d="M543 361l408 409c7 7 11 16 11 26s-4 19-11 26l-2 2c-14 14-38 14-52 0l-408-409-409 409c-14 14-38 14-52 0l-2-2c-7-7-10-16-10-26s3-19 10-26l409-409-409-408c-7-7-10-16-10-26 0-10 3-20 10-27l2-1c7-7 17-11 26-11 10 0 19 4 26 11l409 408 408-408c14-15 38-15 53 0l1 1c7 7 11 17 11 27 0 10-4 19-11 26l-408 408z" horiz-adv-x="1000" />

<glyph glyph-name="cross-circle" unicode="&#xe82b;" d="M500 850c-276 0-500-224-500-500 0-276 224-500 500-500 276 0 500 224 500 500 0 276-224 500-500 500z m-398-500c0 92 31 176 83 243l558-558c-67-52-152-83-243-83-220 0-398 178-398 398z m713-243l-558 558c67 52 152 83 243 83 220 0 398-178 398-398 0-91-31-176-83-243z" horiz-adv-x="1000" />

<glyph glyph-name="mask" unicode="&#xe82c;" d="M1387 639c0 3-1 7-4 10-2 2-5 3-7 5-5 1-10 0-15-2-32-18-64-36-95-54-8-4-17-2-23 4-22 22-62 54-120 74-50 16-94 17-123 14-12-1-24-4-34-9-36-19-77-37-123-54-50-19-97-28-139-37-2-1-5-1-8 0-42 9-88 18-138 37-46 17-88 35-124 54-10 5-21 9-33 9-30 3-74 2-123-14-59-20-99-52-121-74-6-6-15-8-23-4-32 18-63 36-95 54-5 3-11 4-17 1-2-1-3-3-5-4-3-3-4-7-4-10-1-3 0-5 1-8 33-99 53-181 65-237 16-76 23-130 58-199 27-51 58-88 80-111 13-13 35-31 65-45 40-17 76-19 97-18 1 0 1 0 2 0 34-3 59 1 76 6 19 5 32 12 59 18 18 4 34 5 45 5 8 0 20 0 33-4 23-6 31-18 50-27 11-5 29-11 55-10 1 0 1 0 1 0 26-1 44 5 56 10 19 9 27 20 49 27 14 4 26 4 34 4 10 0 26-2 45-5 27-6 40-12 58-18 17-5 43-9 77-6 1 0 1 0 2 0 20-1 56 1 96 18 31 14 53 32 66 45 22 23 53 60 79 111 36 69 43 123 59 199 12 56 31 138 65 237 1 3 1 5 1 8m-799-354c-13-27-59-30-98-32-30-1-98-4-174 34-52 26-87 69-108 94 20 3 48 1 78 16 36 19 44 37 76 46 29 9 54 3 80-4 18-4 81-21 122-80 13-19 34-50 24-74m496 2c-76-38-144-35-174-34-39 2-85 5-98 32-10 24 11 55 24 74 41 59 104 76 122 80 26 7 51 13 80 4 32-9 40-27 76-46 30-15 58-13 78-16-21-25-56-68-108-94" horiz-adv-x="1400" />

<glyph glyph-name="lock" unicode="&#xe82d;" d="M792 433v125c0 0 0 292-292 292s-292-292-292-292v-125h-125v-583h834v583c0 0-125 0-125 0z m-250-321v-137h-84v137c-25 14-41 41-41 71 0 46 37 84 83 84s83-38 83-84c0-30-17-57-41-71z m125 321h-334v125c1 35 0 167 167 167s166-132 166-167v-125z" horiz-adv-x="1000" />

<glyph glyph-name="mail" unicode="&#xe82e;" d="M929 11v428q-18-20-39-36-149-115-238-189-28-24-46-37t-48-28-57-13h-2q-26 0-57 13t-48 28-46 37q-88 74-238 189-21 16-39 36v-428q0-7 6-13t12-5h822q7 0 12 5t6 13z m0 586v14t-1 7-1 7-3 5-5 4-8 2h-822q-7 0-12-6t-6-12q0-94 83-159 107-84 223-176 4-3 20-17t25-21 25-17 28-16 24-5h2q11 0 24 5t28 16 25 17 25 21 20 17q116 92 224 176 30 24 56 65t26 73z m71 21v-607q0-37-26-63t-63-27h-822q-36 0-63 27t-26 63v607q0 37 26 63t63 26h822q37 0 63-26t26-63z" horiz-adv-x="1000" />

<glyph glyph-name="pencil" unicode="&#xe830;" d="M203-7l50 51-131 131-51-51v-60h72v-71h60z m291 518q0 12-12 12-5 0-9-4l-303-302q-4-4-4-10 0-12 13-12 5 0 9 4l303 302q3 4 3 10z m-30 107l232-232-464-465h-232v233z m381-54q0-29-20-50l-93-93-232 233 93 92q20 21 50 21 29 0 51-21l131-131q20-22 20-51z" horiz-adv-x="857.1" />

<glyph glyph-name="info-circled" unicode="&#xe833;" d="M454 810q190 2 326-130t140-322q2-190-131-327t-323-141q-190-2-327 131t-139 323q-4 190 130 327t324 139z m52-152q-42 0-65-24t-23-50q-2-28 15-44t49-16q38 0 61 22t23 54q0 58-60 58z m-120-594q30 0 84 26t106 78l-18 24q-48-36-72-36-14 0-4 38l42 160q26 96-22 96-30 0-89-29t-115-75l16-26q52 34 74 34 12 0 0-34l-36-152q-26-104 34-104z" horiz-adv-x="920" />

<glyph glyph-name="check-cirlcle" unicode="&#xe834;" d="M500 850c-277 0-500-223-500-500 0-277 223-500 500-500s500 223 500 500c0 277-223 500-500 500z m-41-709l-3 3-3-3-208 206 89 89 122-122 247 247 89-89-333-331z" horiz-adv-x="1000" />

<glyph glyph-name="minus-circle" unicode="&#xe835;" d="M502 852c-277 0-500-224-500-500 0-277 223-500 500-500s500 223 500 500c0 275-225 500-500 500z m314-594h-630v187h628v-187z" horiz-adv-x="1000" />

<glyph glyph-name="unisex-icon" unicode="&#xe836;" d="M334 235c-21 19-34 40-39 63-5 23-4 51 4 84 8 33 11 59 7 79-4 21-14 40-32 58-19 19-42 29-67 29-2 0-4 0-6 0-28-2-53-14-77-38-24-24-36-50-38-79-1-25 7-49 23-71l-47-47c-28 34-40 70-39 111 1 45 23 88 65 130 39 39 81 60 125 64 5 0 9 1 13 1 38 0 71-14 99-42 42-42 55-95 38-162-9-34-11-60-8-79 3-20 14-39 32-58l10-10-47-50-16 17z m153-152c-12 0-22 4-31 13-9 9-13 19-13 32 0 5 1 9 2 14l0 1 0 1c2 8 6 15 12 21 9 9 19 13 31 13l1 0c12 0 23-5 32-14 9-9 14-20 14-32 0-12-4-23-13-32-1-1-3-2-4-4-9-9-19-13-31-13l0 0z m92 187l16 17c19 21 40 34 63 39 9 2 19 3 29 3 16 0 35-3 55-7 23-6 43-9 59-9 7 0 14 1 19 2 21 4 40 14 58 32 21 21 30 45 28 73-2 28-14 53-38 77-24 24-50 36-79 38-1 0-3 0-4 0-23 0-46-8-66-23l-47 47c32 26 67 39 105 39 2 0 4 0 6 0 45-1 88-23 130-65 39-39 60-81 64-125 4-44-10-81-41-112-31-31-66-45-109-45 0 0 0 0 0 0-17 0-34 2-53 7-25 6-46 9-62 9-6 0-12 0-17-1-20-3-39-14-58-32l-10-10-48 46z" horiz-adv-x="1000" />

<glyph glyph-name="verified" unicode="&#xe837;" d="M500-150c-275 0-500 225-500 500s225 500 500 500 500-225 500-500-225-500-500-500z m0 916c-229 0-415-187-415-416 0-229 186-416 415-416 229 0 416 187 416 416 0 229-187 416-416 416z m99-275l-71-169c-10-28-21-56-31-81-11 28-22 56-29 81l-63 169h-88l137-349 0-3h74l148 345 4 7h-81z" horiz-adv-x="1000" />

<glyph glyph-name="heart-empty" unicode="&#xe838;" d="M502-150l-353 338c-71 67-119 153-142 246-11 70-7 111-3 119 15 171 134 297 282 297 90 0 168-45 220-119 52 74 133 119 223 119 148 0 267-126 282-301 0 0 8-41-7-112-23-93-71-178-141-245l-361-342z m-219 926c-123 0-197-119-209-235 0-3-3-33 8-89 18-78 59-152 119-208l301-290 308 290c60 56 101 130 119 208 12 56 8 86 8 86-11 119-86 238-208 238-82 0-156-56-190-138h-71c-33 86-104 138-185 138z" horiz-adv-x="1011" />

<glyph glyph-name="lightbulb" unicode="&#xe839;" d="M0 506q0 143 101 243t243 101 243-101 101-243q0-54-30-121t-71-140-56-116q-15-39-31-94t-24-82-27-53-42-39-63-11-64 11-41 39-26 53-25 82-32 94q-13 43-55 117t-72 139-29 121z m63 0q0-64 82-213 37-64 52-99l293 0q16 35 53 99 82 151 82 213 0 117-82 199t-199 82-199-82-82-199z m93 0q0 78 55 133t133 55q15 0 15-16t-15-16q-65 0-111-45t-45-111q0-15-16-15t-16 15z m67-375q11-33 19-60l213 27q2 12 10 33l-242 0z m29-90q10-35 18-60l154 19q6 16 12 38 2 5 4 15t3 12z m29-89q12-26 25-33t38-7q29 0 43 10t27 45z" horiz-adv-x="687" />

<glyph glyph-name="tags" unicode="&#xe83a;" d="M250 600q0 30-21 51t-50 20-51-20-21-51 21-50 51-21 50 21 21 50z m595-321q0-30-20-51l-274-274q-22-21-51-21-30 0-50 21l-399 399q-21 21-36 57t-15 65v232q0 29 21 50t50 22h233q29 0 65-15t57-36l399-399q20-21 20-50z m215 0q0-30-21-51l-274-274q-22-21-51-21-20 0-33 8t-29 25l262 262q21 21 21 51 0 29-21 50l-399 399q-21 21-57 36t-65 15h125q29 0 65-15t57-36l399-399q21-21 21-50z" horiz-adv-x="1071.4" />

<glyph glyph-name="dots" unicode="&#xe83c;" d="M226 281c38 0 69 31 69 69s-31 68-69 68c-37 0-68-30-68-68s31-69 68-69z m274 0c38 0 69 31 69 69s-31 68-69 68-68-30-68-68 30-69 68-69z m274 0c38 0 68 31 68 69s-30 68-68 68-69-30-69-68 31-69 69-69z" horiz-adv-x="1000" />

<glyph glyph-name="mask-cs" unicode="&#xe83d;" d="M1060 279c-91-35-191 25-191 25s46 115 137 151 191-25 191-25-48-117-137-151z m-706 0c-91 36-137 151-137 151s100 60 191 25c91-36 137-151 137-151s-100-60-191-25z m1009 306c-100 62-204 105-321 100-67-1-131-20-196-38-35-9-71-18-106-29-11-3-21-5-32-5-11 0-22 2-33 5-35 11-70 20-106 29-64 17-129 35-195 38-117 5-222-38-322-100-46-27-57-53-47-98 10-54 26-108 47-157 19-45 40-88 63-131 37-67 77-130 148-158 43-17 86-28 132-23 27 1 48 14 71 26 23 12 46 25 66 41s42 33 59 53c0 0 71 78 120 91 48-13 120-91 120-91 17-20 38-36 58-53s43-27 65-41c23-12 46-25 71-26 44-3 89 6 132 23 71 28 111 91 148 158 23 42 44 86 63 131 21 49 35 103 47 157 5 45-7 69-52 98z" horiz-adv-x="1414" />

<glyph glyph-name="chat-cs" unicode="&#xe83e;" d="M1048 350c0 253-223 458-498 458-275 0-498-205-498-458 0-253 223-458 498-458 104 0 201 30 281 80 141-103 217-75 217-75-84 104-101 153-62 232 39 66 62 141 62 221z" horiz-adv-x="1100" />

<glyph glyph-name="everyone-cs" unicode="&#xe83f;" d="M432 341c-33 32-54 77-55 126-5 0-9 1-14 1h-125c-103 0-188-85-188-189v-153l0-2 12-4c79-25 150-36 211-40v46c0 102 67 188 159 215z m-131 138c29 0 55 9 78 23 7 47 32 89 68 117 0 3 1 5 1 8 0 82-66 148-147 148-81 0-146-66-146-148s65-148 146-148z m561-10h-123c-2-50-22-95-56-127 92-27 159-113 159-215v-47c122 4 192 39 196 42l10 5h1v152c0 104-84 190-187 190z m-243-153h-124c-103 0-188-85-188-189v-153l1-3 10-3c99-31 184-42 255-42 138 0 218 40 223 42l10 5h1v154c0 104-84 189-188 189z m-62 10c81 0 147 66 147 148s-66 148-147 148c-81 0-146-66-146-148s66-148 146-148z m97 303c46-29 78-79 84-136 19-9 40-14 62-14 81 0 146 66 146 148s-66 147-146 147c-80 0-146-65-146-145z" horiz-adv-x="1100" />

<glyph glyph-name="email" unicode="&#xe840;" d="M1000 480c0 1 0 1 0 2-1 1-1 1-1 2 0 1-1 2-1 2 0 1 0 1 0 1 0 1-1 1-1 1 0 0-1 1-1 1 0 1-1 2-2 2 0 1-1 1-1 1-1 1-1 1-1 1l-169 102v110c0 9-8 16-16 16h-195l-104 62c-5 3-11 3-16 0l-104-62h-194c-9 0-17-7-17-16v-110l-169-102c0 0 0 0-1-1 0 0-1 0-1-1-1-1-2-2-3-3 0 0-1 0-1-1 0 0 0 0 0-1 0 0-1-1-1-2 0 0 0-1-1-2 0 0 0-1 0-2 0 0 0 0 0-1v-516c0-27 22-49 48-49h904c26 0 48 22 48 49v516c0 0 0 1 0 1z m-177 77l130-78-130-78v156z m-323 194l49-30h-98l49 30z m-290-62h580v-307l-88-53-194 116c-5 3-11 3-16 0l-194-116-88 53v307z m-33-132v-156l-129 78 129 78z m-145-106l235-141-235-141v282z m936-488c0-9-7-16-16-16h-904c-8 0-16 7-16 16v168l468 281 468-281v-168z m0 206l-235 141 235 141v-282z m-855-158h-16v49c0 9-7 16-16 16s-16-7-16-16v-65c0-9 7-16 16-16h32c9 0 16 7 16 16s-7 16-16 16z m97 0h-33c-8 0-16-7-16-16s8-16 16-16h33c9 0 16 7 16 16s-7 16-16 16z" horiz-adv-x="1000" />

<glyph glyph-name="external-link" unicode="&#xe841;" d="M768 279h-36c-5 0-9-2-13-5-3-4-5-8-5-13v-179c0-24-8-45-26-63-17-17-38-26-63-26h-464c-25 0-46 9-63 26-18 18-27 39-27 63v464c0 25 9 46 27 64 17 17 38 26 63 26h393c5 0 9 1 12 5 4 3 5 7 5 13v35c0 6-1 10-5 13-3 4-7 5-12 5h-393c-45 0-82-16-114-47-31-31-47-69-47-114v-464c0-44 16-82 47-113 32-32 69-48 114-48h464c44 0 82 16 114 48 31 31 47 69 47 113v179c0 5-2 9-5 13-4 3-8 5-13 5z m221 489c-7 7-15 11-25 11h-285c-10 0-18-4-25-11-8-7-11-15-11-25s3-18 11-25l98-98-364-364c-4-4-6-8-6-13 0-5 2-9 6-13l63-64c4-3 8-5 13-5s9 2 13 5l364 364 98-98c7-7 16-11 25-11s18 4 25 11c8 7 11 16 11 25v286c0 10-3 18-11 25z" horiz-adv-x="1000" />

<glyph glyph-name="flag-cs" unicode="&#xe843;" d="M328 698c-82 5-151 27-151 27v-446c0 0 69-19 151-25 0 0 46-4 68-3 50 1 98 14 140 28 149 50 297 0 297 0v446c0 0-133 47-253 17-61-16-135-50-252-44z m-237 107h19c8 0 16-7 16-16v-879c0-8-7-16-16-16h-19c-8 0-15 8-15 16v880c0 8 7 15 15 15z" horiz-adv-x="909" />

<glyph glyph-name="volume-up-1" unicode="&#xe844;" d="M1023-42c-10-10-23-15-36-16h-4c-13 0-26 5-36 13l-7 7c-18 16-20 45-3 63 83 90 130 203 130 320 0 122-50 238-139 330-18 18-16 47 2 63l7 7c10 8 23 15 38 13 15 0 28-6 37-15 108-110 166-251 166-396 0-144-55-280-155-389z m-206 129h-4c-11 0-21 5-30 15l-5 6c-15 19-16 45-5 65 32 50 49 110 49 172 0 67-20 130-55 182-14 20-14 48 3 66l5 7c8 10 20 15 32 15 11 0 23-7 31-18 50-72 77-159 77-252 0-87-23-168-68-238-7-12-19-20-30-20z m-165-50c0-19-12-35-30-42-7-3-15-5-22-5-12 0-23 3-33 12l-290 210h-154c-28 0-51 20-51 46v184c0 25 23 46 51 46h154l288 210c15 12 37 14 55 7s30-23 30-42v-626z" horiz-adv-x="1250" />

<glyph glyph-name="play-1" unicode="&#xe845;" d="M892 296l-676-391c-20-11-43-11-62 0-19 11-32 30-32 54v782c0 22 13 41 32 54 19 11 42 11 62 0l676-391c21-13 32-32 32-54-1-24-12-43-32-54z" horiz-adv-x="1045" />

<glyph glyph-name="incognito-mask" unicode="&#xe846;" d="M952 720c-5 5-12 8-20 8 0 0 0 0 0 0-20 0-38 8-52 22-14 14-22 33-22 53 0 7-3 14-8 20-6 4-13 7-20 7h-664c-7 0-14-3-20-8-5-5-8-12-8-20 0-20-8-39-22-53-14-14-32-22-52-22 0 0 0 0 0 0-7 0-14-3-20-8-5-5-8-12-8-20 0-94 14-237 76-388 74-181 199-327 371-434 5-3 10-4 15-4 5 0 10 1 15 4 172 108 297 254 371 435 62 151 76 294 76 388 0 7-3 14-8 20z m-454-786c-336 218-400 547-406 741 24 5 46 17 64 35 18 18 30 40 35 64h614c5-24 17-46 35-64 18-18 40-30 64-35-5-194-69-523-406-741z m246 435c-13 7-30 2-38-11l-24-44h-76l-27 45c-5 8-14 13-24 13h-113c-10 0-19-5-24-13l-28-45h-76l-24 44c-7 13-24 18-38 11-13-7-18-24-11-38l32-58c5-9 14-14 24-14h108c10 0 19 5 24 13l27 45h82l27-45c5-8 14-13 24-13h108c10 0 20 6 24 14l32 58c9 14 5 31-9 38z m-423 247c40 0 77-21 97-56 8-13 25-18 38-10 13 8 18 25 10 38-30 52-86 84-145 84-60 0-115-32-145-84-8-13-3-30 10-38 4-3 9-4 14-4 10 0 19 5 24 14 20 35 57 56 97 56z m-35-42c-10 0-19-8-19-19 0-10 8-19 19-19h74c10 0 19 8 19 19 0 10-8 19-19 19h-74z m389 98c-60 0-115-32-145-84-8-13-3-30 10-38 4-3 9-4 14-4 10 0 19 5 24 14 20 35 57 56 97 56 40 0 77-21 97-56 8-13 25-18 38-10 13 8 18 25 10 38-29 52-85 84-145 84z m40-135c10 0 19 8 19 19 0 10-8 19-19 19h-74c-10 0-19-8-19-19 0-10 8-19 19-19h74z m-188-291c10 0 19 8 19 19 0 10-8 19-19 19h-57c-10 0-19-8-19-19 0-10 8-19 19-19h57z" horiz-adv-x="1000" />

<glyph glyph-name="any-situation" unicode="&#xe847;" d="M648 575l-136 235c-5 7-15 10-23 5-2-1-3-3-5-5l-134-235c-4-7-2-17 6-21 2-1 5-2 8-2h271c9 0 16 7 16 16-1 2-2 5-3 7z m304-414c0 0 0 0 0 0h-250c-9 0-16-7-16-16 0 0 0 0 0 0v-250c0-9 7-16 16-16 0 0 0 0 0 0h250c9 0 16 7 16 16 0 0 0 0 0 0v250c0 9-7 16-16 16z m-781 0c-78 0-141-63-141-140 0-78 63-141 141-141s141 63 141 141c-1 77-64 140-141 140z m178 483l-13 28c-184-84-273-294-206-485l29 10c-61 176 21 370 190 447z m285-660c-43-17-89-26-135-26-50 0-98 10-144 30l-13-29c96-42 205-43 303-4l-11 29z m54 675l0 0c-3 2-7 4-10 5l-14-28c3-2 6-3 9-5l8 14-8-14c114-63 185-184 185-314 0-36-5-71-16-105l30-9c54 177-23 367-184 456z" horiz-adv-x="1000" />

<glyph glyph-name="plus-1" unicode="&#xe848;" d="M500 850c-275 0-500-225-500-500s225-500 500-500 500 225 500 500-225 500-500 500z m250-550h-200v-200h-100v200h-200v100h200v200h100v-200h200v-100z" horiz-adv-x="1000" />

<glyph glyph-name="fun-star" unicode="&#xe849;" d="M596 451c-2 0-4 0-6 1l-93 33-93-33c-6-2-12-1-17 2-5 4-8 9-8 16l3 99-60 79c-4 5-5 11-3 17 2 6 7 10 12 12l95 28 56 82c3 5 9 8 15 8 6 0 12-3 15-8l56-82 95-28c6-2 11-6 12-12 2-6 1-12-3-17l-60-79 3-99c0-6-3-12-8-16-3-2-7-3-11-3z m-229 198l48-62c3-3 4-8 4-12l-2-79 74 26c4 1 8 1 12 0l74-26-2 79c0 4 1 8 4 12l48 62-75 22c-4 1-8 4-10 7l-44 65-44-65c-2-4-6-6-10-7l-77-22z m401-26c-4 0-8 1-11 4-5 3-7 9-7 15l1 42-25 33c-4 5-5 11-3 17 2 6 7 10 12 12l40 12 24 34c3 5 9 8 15 8 6 0 12-3 15-8l24-34 40-12c6-2 11-6 12-12 2-6 1-12-3-17l-25-33 1-42c0-6-3-12-8-16-5-4-11-5-17-2l-39 14-39-14c-2-1-5-1-7-1z m46 53c2 0 4 0 6-1l20-7 0 21c0 4 1 8 4 12l13 17-20 6c-4 1-8 4-10 7l-12 17-12-17c-2-4-6-6-10-7l-20-6 13-17c3-3 4-8 4-12l-1-21 20 7c1 1 3 1 5 1z m-589-53c-2 0-4 0-6 1l-39 14-40-14c-6-2-12-1-17 2-5 4-8 9-8 16l1 42-25 33c-4 5-5 11-3 17 2 6 7 10 12 12l40 12 24 34c4 5 10 8 16 8s12-3 15-8l24-34 40-12c6-2 11-6 12-12 2-6 1-12-3-17l-25-33 1-42c0-6-3-12-8-16-3-2-7-3-11-3z m-45 53c2 0 4 0 6-1l20-7-1 21c0 4 1 8 4 12l13 17-20 6c-4 1-8 4-10 7l-12 18-12-17c-2-4-6-6-10-7l-20-6 13-17c3-3 4-8 4-12l-1-21 20 7c2 0 4 0 6 0z m317-646c-1 0-2 0-4 0-1 0-2 1-3 1-1 0-2 1-3 2-1 1-2 1-3 2-1 1-2 2-2 3-1 1-1 2-2 3 0 1-1 2-1 3 0 1 0 2 0 4 0 1 0 2 0 4 0 1 1 2 1 3 0 1 1 2 2 3 1 1 1 2 2 3 1 1 2 2 3 2 1 1 2 1 3 2 1 0 2 1 3 1 2 0 5 0 7 0 1 0 2-1 3-1 1 0 2-1 3-2 1-1 2-1 3-2 1-1 2-2 2-3 1-1 1-2 2-3 0-1 1-2 1-3 0-1 0-2 0-4 0-1 0-2 0-4 0-1-1-2-1-3 0-1-1-2-2-3-1-1-1-2-2-3-1-1-2-2-3-2-1-1-2-1-3-2-1 0-2-1-3-1-1 0-2 0-3 0z m0 62c-10 0-19 8-19 19v307c0 10 8 19 19 19 10 0 19-8 19-19v-308c-1-10-9-18-19-18z m316 118c-1 0-2 0-3 0-6 1-11 5-14 10l-33 70-70 33c-6 3-9 8-10 14-1 6 1 12 6 16l57 54 10 77c1 6 5 11 10 14 5 3 12 3 17 0l68-37 77 14c6 1 12-1 17-5 4-4 6-11 5-17l-14-77 37-68c3-5 3-12 0-17-3-5-8-9-14-10l-77-10-54-57c-5-2-10-4-15-4z m-80 137l52-25c4-2 7-5 9-9l25-52 39 42c3 3 7 5 11 6l57 7-27 50c-2 4-3 8-2 12l11 56-58-9c-4-1-9 0-12 2l-50 27-8-57c-1-4-3-8-6-11l-41-39z m-203-447c-1 0-1 0-2 0-10 1-18 10-17 20 12 118 69 208 115 262 49 59 96 90 98 91 9 6 20 3 26-5 6-9 3-20-5-26-2-1-44-30-90-84-42-50-95-133-106-242-2-9-10-16-19-16z m-349 310c-5 0-10 2-14 6l-54 57-77 10c-6 1-11 5-14 10-3 5-3 12 0 17l38 69-14 77c-1 6 1 12 5 17 4 4 11 6 17 5l77-14 68 37c5 3 12 3 17 0 5-3 9-8 10-14l10-77 57-54c4-4 7-10 6-16-1-6-5-11-10-14l-70-33-33-70c-3-6-8-9-14-10-3-3-4-3-5-3z m-113 106l57-7c4-1 8-3 11-6l39-42 25 52c2 4 5 7 9 9l52 25-42 39c-3 3-5 7-6 11l-7 57-50-27c-4-2-8-3-12-2l-56 11 11-56c1-4 0-9-2-12l-29-52z m396-416c-9 0-18 7-19 17-11 109-64 192-106 242-46 55-88 83-90 84-9 6-11 17-5 26 6 9 17 11 26 5 2-1 48-33 98-91 46-54 102-144 115-262 1-10-6-19-17-20-1-1-1-1-2-1z m179 3c-3 0-5 1-8 2-9 4-13 15-9 25 28 62 76 100 111 121 37 22 67 31 70 32 10 3 20-3 23-13 3-10-3-20-13-23 0 0-27-7-60-27-30-18-72-52-96-105-4-7-11-12-18-12z m-275 0c-7 0-14 4-17 11-25 53-66 87-96 105-33 20-60 27-60 27-10 3-16 13-13 23 3 10 13 16 23 13 3-1 33-9 70-32 35-21 82-59 111-121 4-9 0-20-9-25-4 0-6-1-9-1z m520 237c-10 0-19 8-19 19v16c0 10 8 19 19 19 10 0 19-8 19-19v-16c-1-11-9-19-19-19z m0-84c-10 0-19 8-19 19v15c0 10 8 19 19 19 10 0 19-8 19-19v-16c-1-10-9-18-19-18z m49 50h-16c-10 0-19 8-19 19 0 10 8 19 19 19h16c10 0 19-8 19-19 0-11-8-19-19-19z m-84 0h-16c-10 0-19 8-19 19 0 10 8 19 19 19h16c10 0 19-8 19-19 0-11-8-19-19-19z m-747 34c-10 0-19 8-19 19v16c0 10 8 19 19 19s19-8 19-19v-16c0-11-9-19-19-19z m0-84c-10 0-19 8-19 19v15c0 10 8 19 19 19s19-8 19-19v-16c0-10-9-18-19-18z m50 50h-16c-10 0-19 8-19 19 0 10 8 19 19 19h16c10 0 19-8 19-19-1-11-9-19-19-19z m-84 0h-16c-10 0-19 8-19 19 0 10 8 19 19 19h16c10 0 19-8 19-19-1-11-9-19-19-19z" horiz-adv-x="1000" />

<glyph glyph-name="masks" unicode="&#xe84a;" d="M965 673c-59 58-167 102-242 122-58 16-123 25-179 25-35 0-66-3-91-10-6-2-11-7-13-13-5-20-10-41-14-63 0-1 0-1 0-2-15-85-18-178-8-257-46-3-96-11-141-23-75-20-183-64-241-123-5-5-6-11-5-18 6-22 13-44 21-67 0 0 0 0 0 0 28-77 70-155 116-217 50-67 130-147 222-147 13 0 26 2 39 5 56 15 100 62 127 135 21 56 32 126 32 205 7-1 15-2 22-2 92 0 171 80 222 148 60 80 111 186 137 283 2 7 0 14-4 19z m-546-752c-10-3-20-4-30-4-60 0-128 47-192 133-42 56-80 126-107 195 10 8 26 20 42 31 8 6 11 17 5 25-6 8-17 11-25 5-13-9-25-18-35-25-3 10-6 19-9 29 46 41 131 83 217 106 44 12 92 20 137 22 6-31 14-58 24-83 0 0 0 0 0 0 1-2 2-5 3-7 0 0 0 0 0 0 5-12 11-23 17-33 0 0 0 0 0 0 0 0 0 0 0 0 0-1 1-1 1-2 1-1 1-2 2-4 0-1 1-2 1-2 1-2 2-3 3-5 1-1 1-2 2-2 1-2 2-3 3-5 0-1 1-1 1-2 1-2 2-3 4-5 0 0 0 0 0-1 2-3 5-6 7-9-11-14-28-22-46-22-21 0-40 11-51 29-5 9-16 12-25 7-9-5-12-16-7-25 17-29 49-48 83-48 28 0 55 13 73 34 6-4 12-8 19-12 0 0 1 0 1 0 2-1 3-2 5-3 0 0 1 0 1-1 2-1 3-2 5-2 0 0 0 0 1 0 3-137-31-288-130-314z m384 473c-65-86-133-133-193-133-10 0-20 1-30 4-2 0-4 1-5 2 0 0 0 0 0 0-79 26-108 133-118 194 0 0 0 0 0 0 0 1 0 2-1 3-12 76-10 166 3 250 12 2 32 4 52 6 10 1 18 9 17 20-1 10-9 18-20 17-15-1-30-3-42-4 2 7 4 16 6 24 20 4 44 6 71 6 53 0 115-8 170-23 86-23 172-65 217-106-25-90-72-187-127-260z m46 141c-17 29-49 48-83 48-34 0-66-18-83-48-5-9-2-20 7-25 9-5 20-2 25 7 10 18 30 29 51 29 21 0 40-11 51-29 3-6 10-9 16-9 3 0 6 1 9 2 9 5 12 17 7 25z m-273 102c-29 17-66 17-96 0-9-5-12-16-7-25 5-9 16-12 25-7 18 10 41 10 59 0 18-10 29-30 29-51 0-10 8-18 18-18 10 0 18 8 18 18 2 34-16 66-46 83z m121-234c-7 7-19 7-26 0-15-15-37-21-57-15-20 5-36 21-42 42-2 10-12 15-22 13-10-3-16-13-13-23 9-33 35-59 68-68 8-2 16-3 25-3 25 0 50 10 68 28 6 8 6 19-1 26z m-422-136l0 0c-10 0-18-8-18-18 0-21-11-40-29-51-18-10-41-10-59 0-9 5-20 2-25-7-5-9-2-20 7-25 15-9 31-13 48-13 17 0 33 4 48 13 29 17 48 49 48 83-2 10-10 18-20 18z m193-210c-24 24-59 34-92 25-33-9-59-35-68-68-3-10 3-20 13-22 2 0 3-1 5-1 8 0 16 5 18 14 5 20 21 36 42 42 20 5 42 0 57-15 7-7 19-7 26 0 6 6 6 18-1 25z m98 698c0 0-1 0-1 0-10 1-19-5-21-16-1-10 5-19 16-21l1 0c1 0 2 0 3 0 9 0 17 6 18 15 1 11-6 21-16 22z m-380-431c-4 9-14 14-24 11 0 0-1 0-1-1-9-4-14-14-10-24 3-7 10-12 17-12 2 0 5 0 7 1l1 0c9 5 14 15 10 25z" horiz-adv-x="1000" />

<glyph glyph-name="gif" unicode="&#xe84b;" d="M405 382l-40 0c-7 0-18-1-27-9l-3-3-1-4c-2-5-2-11-2-19 0-8 0-15 1-19 2-6 5-10 10-13 3-2 8-4 14-4v-39c-11-4-23-6-37-6-20 0-39 8-55 24-16 16-24 36-24 59 0 23 8 42 24 56 15 15 34 22 54 22 15 0 29-4 40-11 17-11 24-12 28-12 11 0 22 8 34 24 7 10 11 19 11 27 0 8-5 16-13 22-31 23-63 34-98 34-44 0-82-15-115-46-33-32-49-70-49-116 0-47 16-86 48-119 33-33 69-49 113-49 49 0 86 13 111 39 8 9 13 18 13 29v93c0 11-2 20-5 26-5 9-15 14-32 14z m162 105c-5 13-18 19-40 19-20 0-32-4-37-14-2-4-4-9-4-12-1-4-1-9-1-16v-236c0-10 1-18 3-23 4-13 17-19 39-19 20 0 32 4 37 14 3 5 4 9 5 13 0 3 0 8 0 15v236c0 10 0 18-2 23l0 0z m293 0c-2 6-6 11-11 14l0 0c-5 2-9 4-13 4-3 1-8 1-15 1h-167c-17 0-28-3-34-9-7-6-10-17-10-33v-236c0-11 1-18 3-23 4-13 18-19 39-19 20 0 33 4 37 14 3 5 4 9 5 12 0 4 0 9 0 16v75h79c11 0 18 1 23 3l0 0c13 4 20 17 20 39 0 20-5 32-13 37l-1 1c-5 2-9 4-13 4-3 1-8 1-15 1h-80v34h126c7 0 12 0 16 0 3 1 8 2 12 5 5 2 9 7 11 14 2 5 3 13 3 23 0 9-1 17-2 23l0 0z m-94 210h-532c-129 0-234-105-234-234v-225c0-129 105-235 234-235h532c129 0 234 106 234 235v225c0 129-105 234-234 234z m153-234v-225c0-85-68-154-153-154h-532c-84 0-153 69-153 154v225c0 84 69 153 153 153h532c85 0 153-69 153-153z" horiz-adv-x="1000" />

<glyph glyph-name="be-yourself" unicode="&#xe84c;" d="M329 457h79l67-67c5-5 12-8 20-8 7 0 15 3 20 8l67 67h79c57 0 104 46 104 104v165c0 58-47 104-104 104h-332c-57 0-104-46-104-104v-166c0-56 47-103 104-103z m66 207c11 11 29 11 40 0l33-33 87 87c11 11 29 11 40 0 11-11 11-29 0-40l-107-108c-5-6-13-8-20-8-7 0-14 3-20 8l-53 53c-11 12-11 30 0 41z m100-338c-57 0-103-46-103-103 0-57 46-103 103-103 57 0 103 46 103 103 0 57-46 103-103 103z m333-73c-7 7-17 12-28 12-11 0-21-4-28-12l-182-181c-5-5-12-8-20-8h-151c-7 0-15 3-20 8l-181 181c-8 8-18 12-28 12s-21-4-28-12c-7-7-12-17-12-28 0-11 4-21 12-28l217-217c5-5 8-12 8-20v-91h215v91c0 7 3 15 8 20l218 218c7 7 12 17 12 28 0 10-4 20-12 27z" horiz-adv-x="1000" />

<glyph glyph-name="different" unicode="&#xe84d;" d="M491 405c-8 2-16 3-24 3-50 0-91-41-91-91 0-50 41-91 91-91 50 0 91 41 91 91 0 8-1 17-3 24l254 254 41-5 129 129-97 13-13 97-129-129 5-41-254-254z m-15 87l75 75c-92 31-199 10-272-64-103-103-103-271 0-374 103-103 271-103 374 0 74 74 95 180 64 273l-75-75c3-48-14-97-51-134-69-69-180-69-249 0-69 69-69 180 0 249 37 36 86 53 134 50z m306-26c62-130 39-290-69-397-136-136-358-136-494 0s-136 358 1 495c107 107 267 130 397 69l72 72c-171 98-392 74-538-72-174-174-174-457 0-631 174-174 457-174 631 0 146 146 170 367 72 538l-72-74z" horiz-adv-x="1000" />

<glyph glyph-name="heart-1" unicode="&#xe84e;" d="M968 527c-13 153-121 263-257 263-90 0-173-48-219-126-46 79-125 126-213 126-135 0-244-110-257-263-1-7-6-42 8-100 20-83 65-159 132-219l331-300 337 300c66 60 112 136 132 219 12 58 8 93 6 100z m-656 116c-81 0-146-66-146-146 0-10-8-18-18-18-10 0-18 8-18 18 0 101 82 183 183 183 10 0 18-8 18-18 0-11-9-19-19-19z" horiz-adv-x="1000" />

<glyph glyph-name="like-minded" unicode="&#xe84f;" d="M252 482c-18 14-44 11-58-7-5-6-4-15 2-20 3-2 6-3 9-3 4 0 8 2 11 5 4 6 13 7 18 2 6-5 15-4 20 2 5 7 4 16-2 21z m147-2c5 6 4 15-2 20-18 14-44 11-58-7-5-6-4-15 2-20 3-2 6-3 9-3 4 0 8 2 11 5 4 6 13 7 18 2 6-5 15-3 20 3z m-142-104c4-34 35-58 69-54l0 0c34 4 58 35 54 69l-2 13c-1 6-4 11-8 14-4 4-10 5-16 4l-81-10c-6-1-11-4-14-8-4-4-5-10-4-16l2-12z m94 18l1-6c2-19-11-35-29-38-19-2-35 11-38 29l-1 6 67 9z m416-305c6 4 14 3 18-2 3-4 7-5 11-5 3 0 6 1 9 3 6 5 7 14 2 20-14 18-40 21-58 7-6-5-7-14-2-20 5-6 14-7 20-3z m-161 40c-6-5-7-14-2-20 5-6 14-7 20-2 6 4 14 3 18-2 3-4 7-5 11-5 3 0 6 1 9 3 6 5 7 14 2 20-15 17-41 20-58 6z m122-86l-81 10c-6 1-11-1-16-4-10-8-8-19-10-27-7-55 57-90 100-56 26 20 23 48 25 54 2 11-6 21-18 23z m-24-56c-7-6-16-8-25-7l0 0c-19 2-32 19-29 38l1 6 67-8c-1-3 0-18-14-29z m48 662c8 0 14 6 14 14v34c0 8-6 14-14 14-8 0-14-6-14-14v-34c0-7 6-14 14-14z m0-105c8 0 14 6 14 14v34c0 8-6 14-14 14-8 0-14-6-14-14v-34c0-8 6-14 14-14z m36 70h34c8 0 14 6 14 14 0 8-6 14-14 14h-34c-8 0-14-6-14-14 0-8 6-14 14-14z m-106 0h34c8 0 14 6 14 14 0 8-6 14-14 14h-34c-8 0-14-6-14-14 0-8 6-14 14-14z m-432-458c-8 0-14-6-14-14v-34c0-8 6-14 14-14 8 0 14 6 14 14v34c0 8-7 14-14 14z m0-105c-8 0-14-6-14-14v-34c0-8 6-14 14-14 8 0 14 6 14 14v34c0 7-7 14-14 14z m70 35h-34c-8 0-14-6-14-14 0-8 6-14 14-14h34c8 0 14 6 14 14 0 8-6 14-14 14z m-106 0h-34c-8 0-14-6-14-14 0-8 6-14 14-14h34c8 0 14 6 14 14 0 8-6 14-14 14z m268 679c-14 30-37 52-68 64-7 3-14 0-18-7-15-29-52-50-98-56l-81-10c-8-1-13-8-12-16l-28-3c-1 8-8 13-16 12l-68-8c-34-4-59-36-55-70l22-180c-14-10-22-28-20-46 3-24 24-43 48-43 2 0 4 0 6 0l26 3 3-21c5-44 28-83 62-110 30-22 65-34 102-34 7 0 14 0 21 1 21 3 41 9 60 19 18 10 34 23 47 39 5 6 4 15-2 20-6 5-15 4-20-2-11-13-24-24-39-32-15-8-32-14-50-16-36-4-72 6-101 28-29 23-47 55-52 92l-4 35c0 4-2 7-5 9-3 2-7 3-10 3l-40-5c-1 0-2 0-3 0-10 0-19 8-20 18-1 9 4 18 13 21 0 0 0 0 0 0 2 1 3 1 5 1l40 5c8 1 13 8 12 16l-5 41c-1 7 4 14 12 15l260 32 19-158c3-21 0-41-6-61-2-7 1-15 9-18 1-1 3-1 4-1 6 0 11 4 13 10 8 24 10 48 7 73l-20 160c32 11 56 47 62 94 4 31-1 61-12 86z m-72-165l-44-5c61 7 88 133 21 188 6 6 12 14 16 22 101-41 75-197 7-205z m541-253c-10 13-25 22-42 24l-193 24c-7 1-14 5-18 11-13 19-32 33-53 42-7 3-15 0-18-8 0 0 0-1 0-1-7 2-13 3-20 3-2 0-4 0-7 0 0 0 0 1 0 1-1 8-8 13-16 12-54-6-98-48-106-102-6-33 2-66 23-93 17-23 42-39 69-46l-20-159c-3-21-1-42 4-63 2-6 7-10 14-10 1 0 2 0 4 0 8 2 12 10 10 17-5 17-6 35-4 52l20 159 260-32c7-1 13-8 12-15l-5-41c0-4 1-7 3-10 2-3 6-5 9-5l40-5c2 0 3-1 5-1 9-3 14-12 13-22-1-10-10-18-20-18-1 0-2 0-3 0l-40 5c-4 0-7-1-10-3-3-2-5-6-5-9l-4-35c-4-36-23-69-52-92-29-23-65-33-101-28-19 2-37 8-54 18-16 9-30 22-40 37-5 6-13 8-20 3-6-5-8-13-3-20 13-18 30-33 49-44 20-12 42-19 65-22 7-1 14-1 21-1 37 0 72 12 102 35 35 27 57 66 62 110l3 21c25-3 27-4 32-4 24 0 45 18 48 43 2 18-6 35-20 46l22 180c-1 17-5 33-16 46z m-13-45l-20-165c-2 1-5 2-8 2l-23 3 20 163c3 23-14 44-37 47l30-4c24-1 41-23 38-46z" horiz-adv-x="1000" />

<glyph glyph-name="integrated-chat" unicode="&#xe850;" d="M980 366h-408c-14-25-31-47-51-67-28-28-60-50-97-65-3-1-6-3-9-4v-310c0-5 4-10 10-10h555c5 0 10 4 10 10v436c0 6-4 10-10 10z m-406-109c30 0 55-25 55-55 0-30-25-55-55-55s-55 25-55 55c0 30 24 55 55 55z m364-185c-4-4-10-4-14-1l-112 103-91-100 48-48c4-4 4-10 0-14s-10-4-14 0l-102 103-162-143c-2-2-4-2-7-2s-5 1-7 3c-4 4-3 10 1 14l169 148c4 3 10 3 14 0l47-47 97 106c2 2 4 3 7 3 3 0 5-1 7-3l119-109c3-3 4-9 0-13z m-632 729c-158 0-287-129-287-287s129-287 287-287c39 0 75 8 109 21 57 24 105 65 137 118 26 43 41 94 41 148 0 158-129 287-287 287z m-1-391l0 0 0 0c0-7-4-13-10-15-2-1-5-2-7-2-4 0-7 1-11 4l-56 44c-2-1-5-1-8-1h-56c-18 0-33 15-33 33v97c0 18 15 33 33 33h56c3 0 6 0 9-1l55 43c5 4 12 5 18 2 6-3 10-9 10-15 0 0 0-222 0-222z m142 239c32-33 52-79 52-129 0-49-19-94-50-127l-19 19c26 28 43 67 43 108 0 43-17 81-44 110l18 19z m-86-169l-19 19c4 6 7 13 7 21 0 9-3 17-8 23l19 19c10-11 16-26 16-41 0-16-6-30-15-41z m43-42l-19 19c15 17 24 40 24 64 0 25-10 49-26 66l19 19c21-22 34-52 34-84 0-34-12-63-32-84z" horiz-adv-x="1000" />

<glyph glyph-name="local" unicode="&#xe851;" d="M498 820c-195 6-355-149-355-342 0-219 210-378 328-607 6-12 23-12 29 0 107 206 289 344 323 542 35 205-117 400-325 407z m-12-522c-99 0-179 80-179 179s80 179 179 179c99 0 179-80 179-179s-80-179-179-179z" horiz-adv-x="1000" />

<glyph glyph-name="gem" unicode="&#xe852;" d="M1164 577l-264 265c-3 2-9 8-597 8-4 0-31-12-35-14-45-45-116-115-170-170-65-64-90-89-90-89-10-12-10-30 0-41 8-10 566-670 572-678l8-10 8 10c6 6 568 674 572 678 8 11 8 29-4 41z m-808-51l158-504-422 504h264z m-22 264h191l-136-172-55 172z m502-204l57 180 179-180h-236z m246-60l-422-504 158 504 264 0z m-434 264h190l-55-172-135 172z m-208-204l146 186 146-186h-292z m316-60l-170-541-170 541 340 0z m-654 60l179 180 57-180h-236z" horiz-adv-x="1174" />

<glyph glyph-name="right-message" unicode="&#xe854;" d="M718 735h-644c-30 0-54-24-54-54v-386c0-30 24-54 54-54h42v-144c0-9 6-17 14-21 3-1 6-2 9-2 6 0 12 2 16 7l160 160h32c13 0 23 10 23 23 0 13-10 23-23 23 0 0-43 0-43 0-5 0-10-3-14-7l-129-129c0 0 0 113 0 114-1 12-11 21-23 21h-64c-5 0-9 4-9 9v386c0 5 4 9 9 9h644c5 0 9-4 9-9v-148c0-13 10-23 23-23s23 10 23 23v148c-1 30-25 54-55 54z m-116-150h-412c-13 0-23-10-23-23 0-13 10-23 23-23h412c13 0 23 10 23 23 0 13-10 23-23 23z m-256-150h-156c-13 0-23-10-23-23s10-23 23-23h156c13 0 23 10 23 23s-10 23-23 23z m580 23h-451c-30 0-54-24-54-54v-264c0-30 24-54 54-54h282l114-114c4-4 10-7 16-7 3 0 6 1 9 2 8 4 14 12 14 21v98h16c30 0 54 24 54 54v264c0 30-24 54-54 54z m-331-209c-12 0-23 10-23 23 0 13 10 23 23 23 13 0 23-10 23-23 0-13-10-23-23-23z m106 0c-13 0-23 10-23 23 0 13 10 23 23 23s23-10 23-23c-1-13-11-23-23-23z m105 0c-13 0-23 10-23 23 0 13 10 23 23 23 13 0 23-10 23-23-1-13-11-23-23-23z" horiz-adv-x="1000" />

<glyph glyph-name="sign-up" unicode="&#xe855;" d="M504 526c-100 0-181-81-181-181 0-100 81-181 181-181 100 0 181 81 181 181 0 100-81 181-181 181z m108-147l-130-130c-5-5-13-8-20-8-7 0-14 3-20 8l-50 50c-11 11-11 29 0 39 11 11 29 11 39 0l30-30 110 110c11 11 29 11 39 0 13-10 13-28 2-39z m296 183l0 0c0 10-1 20-1 30-1 52-42 96-95 99-109 6-194 42-266 112l-1 1c-24 22-59 22-83 0l-1-1c-72-70-157-106-266-112-52-3-94-46-95-99 0-11 0-20-1-30l0-2c-2-111-5-250 42-376 25-69 64-129 115-179 58-56 133-101 225-133 3-1 6-2 9-3 6 1 10 1 15 1 4 0 9 0 13 1 3 1 6 1 9 3 91 32 167 77 224 133 51 49 89 110 115 179 47 126 44 265 42 376z m-404-454c-131 0-237 106-237 237s106 237 237 237c131 0 237-106 237-237s-106-237-237-237z" horiz-adv-x="1000" />

<glyph glyph-name="video-calling" unicode="&#xe856;" d="M981 337c-10 19-35 26-55 14l-132-77-34-20v-183l31-19c1 0 1-1 2-1l130-75c6-5 14-7 22-7 22 0 39 17 39 39v156l1 153c2 7 1 14-4 20z m-773 59c103 0 187 84 187 187s-83 187-187 187c-103 0-187-84-187-187-1-103 84-187 187-187z m0 264c43 0 77-35 77-77 0-43-35-77-77-77-42 0-77 35-77 77 0 43 34 77 77 77z m474-274c-30-15-64-24-100-24-44 0-86 13-121 36h-132c-35-23-77-36-121-36-36 0-70 8-100 24-27-15-45-45-45-78v-283c0-52 43-94 94-94h477c52 0 94 43 94 94v283c-1 33-19 63-46 78z m-100 10c103 0 187 84 187 187s-84 187-187 187-187-84-187-187 84-187 187-187z m0 264c43 0 77-35 77-77 0-43-35-77-77-77-42 0-77 35-77 77 1 43 34 77 77 77z" horiz-adv-x="1000" />

<glyph glyph-name="more-connect-1" unicode="&#xe857;" d="M596 61l-24 105c-14-5-28-8-43-10l24-105c-28-14-47-43-47-77 0-48 39-87 87-87s87 39 87 87-37 86-84 87z m297 341c-37 0-69-24-81-57l-108 11c0-1 0-2 0-2 0-14-2-28-4-41l108-11c7-41 42-73 85-73 48 0 87 39 87 87 0 47-39 86-87 86z m-514 102l-59 55c7 12 11 26 11 41 0 48-39 87-87 87s-87-39-87-87 39-87 87-87c17 0 32 5 46 13l58-55c10 13 20 24 31 33z m247 7l78 131c8-2 16-4 24-4 48 0 87 39 87 87s-39 87-87 87c-48 0-87-39-87-87 0-24 10-45 25-61l-77-130c13-7 25-14 37-23z m-313-200l-134-45c-15 24-42 39-72 39-48 0-87-39-87-87s39-87 87-87 87 39 87 87c0 2 0 4-1 6l134 46c-6 13-11 27-14 41z m329-30c12 21 19 45 19 71 0 84-68 152-152 152s-152-68-152-152 69-151 153-151c29 0 94 11 132 80z" horiz-adv-x="1000" />

<glyph glyph-name="warning" unicode="&#xe858;" d="M500 16c-49 0-90 39-90 88 0 49 40 88 90 88 49 0 90-39 90-88 0-49-41-88-90-88m0 598c30 0 54-26 54-59v-235c0-32-24-59-54-59s-54 26-54 59v235c0 33 24 59 54 59m464-484l-342 589c-26 44-71 71-122 71-51 0-96-27-122-71l-342-589c-26-45-27-100-1-146 25-46 71-74 123-74h684c52 0 98 28 123 74 26 46 25 101-1 146" horiz-adv-x="1000" />

<glyph glyph-name="lock-1" unicode="&#xe859;" d="M761 476h-65v83c0 161-135 291-305 291-169 0-304-130-304-291v-83h-65c-13 0-22-9-22-22v-521c0-44 39-83 87-83h609c48 0 87 39 87 83v521c0 13-9 22-22 22z m-317-304l13-122c0-4 0-13-5-17-4-5-13-9-17-9h-87c-4 0-13 4-18 9-4 4-4 8-4 17l13 122c-22 17-35 43-35 69 0 48 40 87 87 87 48 0 87-39 87-87 0-26-13-52-34-69z m121 330h-348v74c0 78 79 144 174 144 96 0 174-66 174-144v-74z" horiz-adv-x="783" />

<glyph glyph-name="private-start" unicode="&#xe85a;" d="M533 299c0 17-15 32-33 32-1 0-3 0-4 0-14-2-26-12-28-26-2-12 3-22 11-29l-9-40c-1-4 3-9 7-9h23 22c5 0 8 4 7 9l-8 40c7 4 12 13 12 23m-33 227c-3 0-5 0-8 0-44-4-77-41-77-83v-47h169 0l0 50c1 44-37 80-84 80m-482-176c0 234 215 424 482 424 266 0 483-190 483-424 0-234-216-424-482-424-97 0-187 25-262 68-69-41-143-39-185-33-12 2-15 18-5 24 41 27 64 65 76 99-67 72-107 165-107 266z m631-213c21 0 39 17 39 39v180c0 22-17 39-39 39h-1v51c0 81-66 148-147 148-2 0-4 0-6 0-80-3-142-71-142-151v-48h-3c-21 0-39-17-39-39v-180c0-22 17-39 39-39h299z" horiz-adv-x="1000" />

<glyph glyph-name="private-declined" unicode="&#xe85b;" d="M500 778c-236 0-428-192-428-428s192-428 428-428 428 192 428 428-192 428-428 428m0-901c-127 0-245 49-335 138-89 90-138 208-138 335s49 245 138 335c90 89 208 138 335 138s245-49 335-138c89-89 138-208 138-335s-49-245-138-335c-90-89-208-138-335-138m-122 574c-24 0-44-20-44-45 0-24 20-44 44-44 25 0 45 20 45 44 1 25-20 45-45 45m0-134c-49 0-89 40-89 89 0 50 40 90 89 90 50 0 89-40 89-90 0-49-39-89-89-89m263 134c-25 0-45-20-45-45 0-24 20-44 45-44 24 0 44 20 44 44 0 25-20 45-44 45m0-134c-50 0-89 40-89 89 0 50 39 90 89 90 49 0 89-40 89-90 0-49-41-89-89-89m114 179l-109 108 30 32 110-108-31-32z m-507 0l-33 30 107 119 33-31-107-118z m362-441c-136 166-275 117-276 116l-16 42c2 1 44 17 107 8 56-8 139-38 221-137l-36-29z" horiz-adv-x="1000" />

<glyph glyph-name="heart" unicode="&#xe85c;" d="M727 850c142 0 266-124 281-296 0 0 7-41-8-112-22-98-71-184-139-251l-359-345-352 349c-68 67-120 153-139 251-15 71-7 112-7 112 11 146 123 292 273 292 158 0 225-120 225-120s79 120 225 120z" horiz-adv-x="1011" />

<glyph glyph-name="private-end" unicode="&#xe85d;" d="M414 322c0 10-8 17-18 17-1 0-1 0-2 0-8-1-14-7-15-14-1-6 2-12 6-16l-5-22c-1-2 1-5 4-5h12 12c3 0 4 2 4 5l-5 22c4 3 7 7 7 13m-18 125c-1 0-3 0-5 0-24-2-42-22-42-45v-26h93 0l0 27c1 24-20 44-46 44m579-73l-204 200c-13 13-34 13-47 0-13-13-13-34 0-47l146-144h-211c-18 113-129 200-263 200-147 1-266-104-266-233 0-56 22-107 59-147-7-18-19-39-42-54-6-4-4-12 3-13 24-3 64-4 102 18 42-24 91-38 144-38 134 0 245 87 263 200h211l-146-142c-13-13-13-34 0-47 7-7 15-10 24-10 9 0 17 3 24 10l204 200c6 6 10 15 10 24-1 8-4 16-11 23z m-476-120c0-12-10-21-21-21h-165c-12 0-21 10-21 21v99c0 12 10 21 21 21h2v26c0 44 34 82 78 83 1 0 2 0 3 0 45 0 81-36 81-81v-28h1c12 0 21-10 21-21v-99z m-86-254h-299c-18 0-33 16-33 35v630c0 19 15 35 33 35h299c18 0 33 16 33 35 0 19-15 35-33 35h-299c-55 0-100-47-100-105v-631c1-57 46-104 100-104h299c18 0 33 16 33 35s-15 35-33 35" horiz-adv-x="1000" />

<glyph glyph-name="private-chat-1" unicode="&#xe85e;" d="M961 491l-120 97v146c0 12-11 22-23 22h-176l-70 59c-42 34-102 33-144-1l-70-58h-177c-12 0-23-9-23-22v-145l-119-98c-5-4-8-11-8-17h1v-501c0-63 50-113 111-113h713c62 0 111 51 111 112v502h1c1 6-2 13-7 17z m-121 39l70-56-70-52v108z m-383 250c25 21 61 20 86 0l28-24h-143l29 24z m-255-69h593v-322l-255-190c-24-18-57-18-81 0l-257 192v320z m-44-180v-107l-68 51 68 56z m765-559c0-37-30-68-66-68h-714c-37 0-66 30-66 67v458l90-67 266-199c20-15 43-22 67-22s47 7 67 22l356 266v-457z" horiz-adv-x="1000" />

<glyph glyph-name="free-star" unicode="&#xe85f;" d="M424 379l-25-8 13-40 23 7c5 2 9 4 11 4 3 2 5 4 9 5 3 2 5 6 7 9 2 4 0 7 0 13-6 12-18 16-38 10z m628-30l-187 111 85 199-216-19-46 210-162-143-162 143-48-212-216 21 85-199-185-111 187-110-87-198 216 19 48-212 162 143 162-143 48 212 216-19-86 199 186 109z m-776-100l22-67-39-13-56 177 118 37 11-36-79-25 11-35 73 23 11-36-72-25z m223-3l-59 59-17-8 23-69-40-13-55 177 68 21c45 15 71 4 84-32 3-12 3-25 0-35-4-11-11-20-23-25l67-61-48-14z m70 21l-56 177 120 37 11-36-81-25 11-32 77 25 10-35-78-27 11-36 85 27 11-36-121-39z m155 50l-56 177 120 37 11-36-81-25 11-32 77 25 10-35-76-25 10-36 86 27 11-36-123-41z" horiz-adv-x="1052" />

<glyph glyph-name="hide-location" unicode="&#xe860;" d="M502 391c69 79 80 235-28 333-103 93-254 75-317 14 114-114 229-231 345-347m-398 298c-69-80-73-233 29-329 100-94 251-79 322-14-116 112-233 226-351 343m200 157c165-2 300-131 304-296 2-71-20-137-61-198-57-82-114-165-169-249-17-26-29-55-43-84-6-12-13-24-31-24-18 0-26 12-33 24-46 111-120 205-189 300-35 51-66 102-78 164-35 159 82 328 243 355 20 4 39 6 57 8m0-931c27-6 53-12 80-18 6-2 14-8 14-14 0-4-8-13-14-15-53-20-108-20-162 0-6 2-14 11-12 13 2 6 8 12 15 14 26 8 53 14 79 20m14 515c-44-4-81 6-116 24-35 18-63 45-84 78-4 4-4 16 0 20 11 14 23 29 29 37 57-53 112-104 171-159m-26 224c55 4 104-12 147-45 8-6 14-12 20-18 45-45 45-59-4-98-55 53-108 108-163 161" horiz-adv-x="612" />

<glyph glyph-name="sticker" unicode="&#xe861;" d="M685 850h-369c-175 0-316-141-316-315v-369c0-175 141-316 316-316h193c56 0 111 15 160 44 45 27 112 72 174 134 69 69 109 134 130 177 18 35 27 74 27 113v217c0 174-141 315-315 315z m203-593c-19-40-53-99-115-160-56-57-126-101-176-128v69c0 59 23 115 66 156 41 41 96 63 156 63h69z m-387-219v-92h-183c-59 0-115 22-156 63-43 41-66 97-66 157v366c0 59 22 115 63 156 41 43 97 66 157 66h366c59 0 115-22 156-63 43-41 66-97 66-156v-182h-88c-174 0-315-141-315-315z" horiz-adv-x="1000" />

<glyph glyph-name="emoji" unicode="&#xe862;" d="M862 712c-96 97-225 150-362 150s-266-53-362-150-150-225-150-362 53-266 150-362c96-97 225-150 362-150s266 53 362 150c97 96 150 225 150 362s-53 266-150 362z m-362-788c-235 0-426 191-426 426s191 426 426 426 426-191 426-426-191-426-426-426z m173 446c45 0 80 36 80 80s-35 80-80 80-80-36-80-80 36-80 80-80z m-350 0c44 0 80 36 80 80s-36 80-80 80c-44 0-80-36-80-80s36-80 80-80z m170-137c-69 0-287 9-287 9l4-16c27-98 134-199 290-203h0c2 0 4 0 6 0 61 0 124 22 179 62 53 39 92 90 105 141l4 16c0 0-233-9-301-9z m6-41c67 0 175 7 233 12-51-75-148-91-232-91-77 0-177 24-232 91 60-5 171-12 231-12z" horiz-adv-x="1000" />

<glyph glyph-name="avatar" unicode="&#xe863;" d="M999-124l-25 100c-11 48-47 87-95 103l-183 61c-45 19-65 91-70 118 34 29 56 69 62 113-1 7 1 15 5 21 6 2 11 7 14 13 12 29 19 60 22 91 0 2 0 3 0 5-3 12-11 23-21 30l0 111c0 67-20 94-42 110-4 33-38 98-166 98-113-5-204-95-208-208l0-111c-10-7-18-18-21-30 0-2 0-3 0-5 3-31 10-62 22-91 2-6 7-11 13-12 2-1 6-7 6-22 6-44 28-85 62-113-4-27-25-99-68-117l-185-62c-47-16-83-55-95-103l-25-100c-3-11 4-23 15-25 1-1 3-1 5-1l958 0c12 0 21 9 21 21 0 1 0 3-1 5z" horiz-adv-x="1000" />

<glyph glyph-name="rear-camera" unicode="&#xe864;" d="M1040 507c-17 10-37 3-47-14-10-16-3-36 14-43 76-40 123-90 123-143 0-87-130-170-320-207-20-3-30-20-27-37 4-16 24-30 40-26 227 43 377 150 377 270 0 76-57 146-160 200m-593-450v-110c0-14 6-24 16-30 10-7 24-7 37 0l207 130c10 6 16 16 16 26 0 10-6 20-16 27l-207 133c-10 7-23 7-37 0-10-6-16-16-16-30v-83c-200 33-347 120-347 213 0 50 43 104 123 144 17 10 24 30 14 43-10 20-30 27-47 17-100-54-157-124-157-200 0-134 167-244 414-280m263 456c0-43-37-80-83-80-47 0-84 37-84 80 0 44 37 80 84 80 43 0 83-36 83-80m-83-146c-87 0-157 66-157 150 0 83 70 150 157 150 86 0 156-67 156-150 0-84-70-150-156-150m260 360h-100v10c0 43-37 80-84 80h-156c-47 0-84-37-84-80v-10h-100c-46 0-83-37-83-80v-287c0-43 37-80 83-80h520c47 0 84 37 84 80v287c3 46-34 80-80 80" horiz-adv-x="1267" />

<glyph glyph-name="crown-1" unicode="&#xe865;" d="M918 468c0-4 0-4 0-9l-54-232c-5-13-14-18-23-18l-336 0c0 0 0 0 0 0h-341c-14 0-23 9-23 18l-59 232c0 5 0 5 0 9-23 5-36 28-36 55 0 27 22 54 54 54 27 0 55-22 55-54 0-18-9-32-19-41l69-73c18-18 41-27 68-27 32 0 59 14 77 41l114 159c-9 0-18 14-18 32 0 32 27 54 54 54 27 0 55-22 55-54 0-14-5-28-14-37 0 0 0 0 0 0l114-159c18-22 45-41 77-41 27 0 50 9 68 28l73 72c-14 9-18 28-18 46 0 32 22 54 54 54 23 0 46-27 46-54 0-27-14-46-37-55z m-63-345c0 13-14 27-28 27h-654c-14 0-27-14-27-27v-64c0-13 13-27 27-27h659c14 0 27 14 27 27v64z" horiz-adv-x="1000" />

<glyph glyph-name="logout" unicode="&#xe866;" d="M624 309c-23 0-42-18-42-41l0-166c0-23-18-42-41-42l-125 0 0 624c0 35-23 67-57 79l-12 4 194 0c23 0 41-19 41-42l0-124c0-23 19-42 42-42 23 0 41 19 41 42l0 124c0 69-56 125-124 125l-447 0c-2 0-3-1-5-1-2 0-4 1-6 1-46 0-83-37-83-83l0-749c0-35 23-67 57-79l250-83c8-3 17-4 26-4 46 0 83 37 83 83l0 42 125 0c68 0 124 56 124 125l0 166c0 23-18 41-41 41z m362 155l-166 166c-12 12-30 15-46 9-15-6-25-22-25-38l0-125-167 0c-23 0-41-19-41-42 0-23 18-41 41-41l167 0 0-125c0-17 10-32 25-39 16-6 34-2 46 9l166 167c16 16 16 42 0 59z" horiz-adv-x="1000" />

<glyph glyph-name="round-user" unicode="&#xe867;" d="M500 850c-275 0-500-225-500-500 0-275 225-500 500-500 275 0 500 225 500 500 0 275-225 500-500 500z m0-150c85 0 150-65 150-150 0-85-65-150-150-150-85 0-150 65-150 150 0 85 65 150 150 150z m0-710c-125 0-235 65-300 160 0 100 200 155 300 155 100 0 300-55 300-155-65-95-175-160-300-160z" horiz-adv-x="1000" />

<glyph glyph-name="settings-o" unicode="&#xe868;" d="M556-150h-116c-40 0-68 32-68 68v92c0 8-4 12-8 12-4 4-12 0-16-4l-64-64c-28-28-72-28-100 0l-80 80c-12 12-20 32-20 48 0 20 8 36 20 48l64 64c4 4 4 8 4 16-4 4-8 8-12 8h-92c-40 0-68 32-68 68v116c0 40 32 68 68 68h92c8 0 12 4 12 8 4 4 0 12-4 16l-64 72c-12 12-20 28-20 48 0 20 8 36 20 48l80 80c28 28 76 28 100 4l64-64c4-4 12-8 16-4 8 0 8 8 8 12v92c0 40 32 68 68 68h116c40 0 68-32 68-68v-92c0-8 4-12 8-12 4-4 12 0 16 4l64 64c28 28 72 28 100 0l80-80c12-12 20-32 20-48s-8-36-20-48l-64-64c-4-4-4-8-4-16 4-4 8-8 12-8h88c40 0 68-32 68-68v-116c0-40-32-68-68-68h-84c-8 0-12-4-12-8-4-4 0-12 4-16l64-64c12-12 20-32 20-48s-8-36-20-48l-80-80c-28-28-72-28-100 0l-64 64c-4 4-8 4-16 4-4-4-8-8-8-12v-88c0-52-32-84-72-84z m-108 76h104v84c0 36 20 68 56 84 36 16 72 8 100-20l60-60 72 72-60 60c-28 28-32 64-20 100s48 56 84 56h84v104h-88c-36 0-68 20-84 56s-4 68 20 92l60 60-72 72-60-60c-24-24-64-32-96-20s-56 48-56 84v84h-104v-84c0-36-20-68-56-84-32-12-72-4-96 20l-60 60-72-72 60-60c24-24 32-64 20-96-16-36-48-56-84-56h-84v-104h84c36 0 68-20 84-56 12-32 4-72-20-96l-60-60 72-72 60 60c24 24 64 32 96 20 36-16 56-48 56-84v-84z m312 84l0 0 0 0z m8 0l0 0c0 0 0 0 0 0z m72 72c0 0 0 0 0 0l0 0z m0 8c0 0 0 0 0 0l0 0z m92 312l0 0 0 0 0 0z m-92 216c0 0 0 0 0 0l0 0z m-340-448c-100 0-180 80-180 180s80 180 180 180 180-80 180-180-80-180-180-180z m0 284c-56 0-104-48-104-104s48-104 104-104 104 48 104 104-48 104-104 104z" horiz-adv-x="1000" />

<glyph glyph-name="billing" unicode="&#xe869;" d="M542 850l0-250 271 0-271 250z m0-312c-38 0-68 28-68 62l0 250-406 0c-38 0-68-28-68-62l0-876c0-34 30-62 68-62l677 0c37 0 68 28 68 62l0 626-271 0z m-305 121l0 35c0 17 15 31 34 31 19 0 34-14 34-31l0-35c21-5 41-13 57-25 15-11 17-31 5-44-12-14-33-16-48-5-13 10-30 15-48 15-37 0-68-21-68-47 0-25 31-47 68-47 75 0 135-49 135-109 0-51-43-93-101-106l0-35c0-17-15-31-34-31-19 0-34 14-34 31l0 35c-21 5-41 13-57 25-15 11-17 31-5 44 12 14 33 16 47 5 13-10 30-15 49-15 37 0 68 21 68 47 0 25-31 47-68 47-75 0-136 49-136 109 0 51 44 93 102 106z m406-684l-474 0c-18 0-34 14-34 31 0 18 16 32 34 32l474 0c19 0 34-14 34-32 0-17-15-31-34-31z m0 125l-474 0c-18 0-34 14-34 31 0 18 16 32 34 32l474 0c19 0 34-14 34-32 0-17-15-31-34-31z m0 125l-135 0c-19 0-34 14-34 31 0 18 15 32 34 32l135 0c19 0 34-14 34-32 0-17-15-31-34-31z m0 125l-135 0c-19 0-34 14-34 31 0 18 15 32 34 32l135 0c19 0 34-14 34-32 0-17-15-31-34-31z" horiz-adv-x="813" />

<glyph glyph-name="send" unicode="&#xe86e;" d="M0 850v-390l733-110-733-109v-391l1024 500-1024 500z" horiz-adv-x="1048" />

<glyph glyph-name="membership" unicode="&#xe870;" d="M459 516c35 0 63-32 63-69 0-38-28-69-63-69-34 0-62 31-62 69 0 37 28 69 62 69m0-225c-53 0-100-38-115-91h234c-19 53-65 91-119 91m954 484h-238-850-237c-22 0-41-19-41-47v-756c0-25 19-47 41-47h1325c21 0 40 22 40 47v756c0 25-19 47-40 47z m-788-666h-331c-22 0-41 19-41 47 0 82 38 153 97 191-22 28-34 62-34 103 0 88 65 159 143 159 79 0 144-71 144-159 0-41-12-75-34-103 59-41 97-113 97-191 0-28-19-47-41-47z m247 469h331c22 0 41-22 41-47 0-25-19-47-41-47h-331c-22 0-41 19-41 47 0 28 19 47 41 47z m334-447h-331c-22 0-41 22-41 47s19 47 41 47h331c22 0 41-19 41-47s-19-47-41-47z m0 182h-331c-22 0-41 21-41 46 0 25 19 47 41 47h331c22 0 41-22 41-47 0-28-19-46-41-46z" horiz-adv-x="1500" />

<glyph glyph-name="bell" unicode="&#xe871;" d="M632 426q16-34 40-52t45-22 44-23 35-55q22-62-74-161t-252-157q-164-58-297-45t-155 75q-20 54 12 111t18 111q-56 192-47 300t113 192q26 22 29 51t29 39q24 8 46-12t56-18q132 2 198-66t160-268z m-186-404q88 32 159 85t100 91 25 50q-8 22-49 33t-124 1-187-48q-102-38-173-87t-94-84-17-53q4-12 50-22t134-4 176 38z m-62 174q8 2 21 7t17 7l2-2q14-40-17-83t-89-63q-96-36-152 14 78 68 218 120z" horiz-adv-x="800" />

<glyph glyph-name="translation" unicode="&#xe872;" d="M299 479c30 30 54 66 60 108h-119c6-42 24-78 59-108z m294 371h-593v-593h593v593z m-90-251h-66c-12-48-30-96-60-132 6 0 12-6 24-6l78-24-18-90-90 18c-24 6-48 18-72 36-24-18-53-30-77-36l-84-18-24 90 84 24c6 0 12 6 24 6-36 36-54 84-60 132h-66v95h156v60h95v-60h156v-95z m150-258l6 12h72c0 0 6 0 6-6l65-186h72v-89h-48l36-108c0 0 0-6-6-6l-72-24c0 0-6 0-6 6l-41 132h-72l-48-132c0 0-6-6-6-6l-72 24c0 0-6 6-6 6l48 108-54 0v95h66l12 30h-198c-6 0-6 0-6-6v-329c0-6 0-6 6-6h581c6 0 6 0 6 6v581c0 6 0 6-6 6h-329c-6 0-6 0-6-6v-102z m90-168c0-6 0-6-6-6h-84l48 126 42-120z" horiz-adv-x="1000" />

<glyph glyph-name="history" unicode="&#xe873;" d="M117 596c79 154 233 254 408 254 258 0 475-225 475-500 0-275-208-500-475-500-221 0-404 158-458 367h104c54-154 192-263 354-263 204 0 375 179 375 396 0 217-171 396-375 396-150 0-275-92-342-221l142-146h-325v338l117-121z m341-308v270h67v-220l183-125-37-71-213 146z" horiz-adv-x="1000" />

<glyph glyph-name="check-o" unicode="&#xe875;" d="M692 518l-244-248-100 104c-16 16-40 16-56 0-16-16-16-44 0-60l128-132c16-16 40-16 56 0l272 276c16 16 16 44 0 60-16 16-40 16-56 0z m-192 332c-276 0-500-224-500-500 0-276 224-500 500-500 276 0 500 224 500 500 0 276-224 500-500 500z m0-920c-232 0-420 188-420 420 0 232 188 420 420 420 232 0 420-188 420-420 0-232-188-420-420-420z" horiz-adv-x="1000" />

<glyph glyph-name="location-hidden" unicode="&#xe87d;" d="M271 233l-76 15-28 56v39l62 63 19 35c-2 5-7 8-12 9-5 1-11-1-14-5l-22-21v27c0 4-2 8-5 11l-28 29v28l102 15c3 1 4 1 6 2l83 50c3 1 5 4 6 6l47 78 45 15c4 1 8 5 10 10l16 50c3 9-2 18-10 21-1 0-2 0-2 1l-97 16-17 11c105 34 219 30 321-12l-31-15h-63c-6 0-12-4-15-9l-33-67c-4-8-1-18 7-22 1 0 2-1 3-1l49-17c4 0 7-1 10 0l61 15 46-15c1 0 1 0 2 0l84-17c4 0 8 0 12 3l38 25c18-20 35-43 50-67l-82-27-89 15-29 43c-3 5-8 7-13 7h-101c-4 0-8-1-11-5l-11-11 43-13 71-3 28-44c3-3 7-6 11-6l100-17c3-1 6 0 8 0l92 31c78-148 69-326-21-466l-26 25v59c0 3-1 6-2 8l-65 130v63c0 5-2 10-7 14l-25 16-1-40v-57c0-3 0-5 1-8l65-130v-62c0-5 2-9 5-12l35-35c-154-206-447-248-653-93-157 117-223 321-166 509l14-41c1-4 3-7 6-9l84-56-19-18c-4-3-6-8-6-12v-50c0-3 1-5 2-7l34-67c2-4 6-8 11-9l71-14v-153c0-2 0-4 1-6l33-84c2-4 6-7 10-9l50-17c2 0 3 0 5 0 9 0 17 7 17 16v76l60 45c4 3 6 7 6 13l-33 8-60-45c-4-3-6-8-6-14v-60l-21 7-30 73v164c0 8-5 15-12 16m47 547l39-27c3-1 5-2 7-3l81-13-8-23-42-15c-3-1-7-3-9-7l-48-79-77-47-113-16c-8-1-15-8-15-16v-51c0-4 2-8 6-11l28-29v-28l-69 46-25 75c48 109 135 197 245 244m506-94l-28-18-75 15-49 16c-3 2-6 2-9 0l-62-15-28 9 20 41h57c2 0 5 0 7 1l58 30c40-22 77-48 109-79m-324 164c-200 0-381-119-459-303l-6-2 2-7c-104-256 19-548 275-651 60-24 124-37 188-37 277 0 500 224 500 500s-223 500-500 500z m59-580c2 85 123 76 123 172 1 102-88 145-183 145-95 0-182-53-172-155h117c0 38 26 49 55 49 33 0 49-20 48-40 0-15-10-25-31-38-37-21-82-44-86-134h129z m-63-156c95 0 94 130 0 130-93 0-93-130 0-130z" horiz-adv-x="1000" />

<glyph glyph-name="no-ad" unicode="&#xe88a;" d="M309 138l-24 71h-151l-24-71h-110l147 425h126l147-425h-111z m-149 149h100l-50 151-50-151z m953 505l-58 58-315-316c-35 18-75 27-121 27h-148v-296l-358-358 58-58 300 300v-12h149c68 0 124 20 167 59 44 39 65 90 65 153 0 53-15 98-47 134l308 309z m-539-309h45c22 0 41-4 58-11l-103-104v115z m173-134c0-41-12-73-34-98-23-24-54-36-94-36h-45v38l160 161c9-18 13-40 13-65z m314 137c-13 0-24-4-32-11-8-6-13-17-13-29 0-13 4-23 12-31 8-8 18-14 30-19 12-4 26-8 41-12 15-3 30-8 45-14 15-5 29-11 41-20 12-8 22-19 29-34 8-14 12-32 12-53 0-36-15-66-43-92-30-26-68-39-116-39s-86 12-115 35c-30 23-44 56-44 98h111c2-34 19-51 51-51 15 0 27 3 35 12 8 8 13 17 13 29s-4 22-12 30c-8 7-18 14-30 18-12 5-26 9-41 13-15 3-31 9-45 14-15 6-29 12-41 20-13 8-22 19-30 34-7 14-11 31-11 52 0 39 14 71 44 95 30 23 67 35 112 35 46 0 83-10 111-31 28-21 43-53 45-98h-113c-1 15-6 27-15 35-8 10-18 14-31 14z" horiz-adv-x="1226" />

<glyph glyph-name="clock" unicode="&#xe892;" d="M468 659c-22 0-41-18-41-41v-295c0-23 19-41 41-41h205c23 0 41 18 41 41 0 23-18 41-41 41h-164v254c0 23-18 41-41 41m428-73c-23-9-32-36-19-54 28-55 41-118 41-182 0-232-186-418-418-418-232 0-418 186-418 418 0 232 186 418 418 418 96 0 186-32 259-91 18-13 46-9 59 5 14 18 9 45-4 59-91 73-200 109-314 109-277 0-500-223-500-500 0-277 223-500 500-500 277 0 500 223 500 500 0 77-18 150-50 218-9 18-36 28-54 18" horiz-adv-x="1000" />

<glyph glyph-name="save-badge" unicode="&#xe893;" d="M500-102l-62-36-50 51-69-20-37 61-72-3-19 70-70 14-2 72-65 33 17 70-55 47 33 64-42 58 47 55-25 68 61 39-6 74 68 23 10 71 72 6 28 66 70-12 45 58 66-30 57 44 57-44 67 30 44-58 70 12 28-66 72-6 11-71 67-23-7-72 60-40-25-68 47-54-41-59 32-63-54-47 16-71-65-32-1-72-71-15-19-69-72 3-37-62-69 21-50-52-60 35z" horiz-adv-x="1000" />

<glyph glyph-name="invite-friends" unicode="&#xe8f8;" d="M488 720c11 0 19 9 19 19v84c0 11-8 20-19 20-10 0-19-9-19-20v-84c0-10 9-19 19-19z m471-532l-34 33c-14 14-31 21-50 21-10 0-21-3-29-7l-54 54c12 14 19 31 19 50 0 20-8 39-22 53-8 8-18 14-29 18 1 4 1 8 1 12 0 20-8 39-22 53-8 7-18 13-29 17 1 4 1 8 1 12 0 19-8 39-22 52-8 9-18 14-29 19 4 23-4 47-21 64-16 15-37 24-58 22l-125 23c-21 4-46 6-64-9-26 7-54 0-73-19-14-13-21-31-21-52 0-4 0-8 1-12-11-4-21-10-30-19-14-13-21-31-21-52 0-4 0-8 1-12-11-4-21-10-30-19-14-13-21-31-21-52 0-11 3-23 8-34-7-3-13-8-20-14-14-13-21-31-21-52 0-18 6-36 19-50l-54-52c-26 10-55 4-76-16l-34-33c-14-14-21-31-21-50s7-36 21-50l43-42c10-11 26-11 37 0 5 5 7 11 7 19 0 7-3 14-7 19l-41 42c-4 3-6 7-6 12s2 10 6 13l34 33c5 5 13 6 21 3 1-1 1-2 2-2 2-2 4-3 6-4l192-191c1-2 3-4 4-6 2-2 3-3 7-4 2-4 3-7 3-11 0-5-2-10-6-13l-34-33c-7-7-18-7-25 0l-43 41c-10 10-26 10-37 0-5-6-7-12-7-19 0-8 3-14 7-20l43-41c13-13 30-20 50-20 19 0 37 7 50 20l33 34c13 14 21 31 21 50 0 12-3 22-8 32l68 67c6 6 30 4 47 3 15-1 31-2 48-1l72-71c-4-9-6-19-6-29 0-19 8-36 21-50l34-33c14-14 31-20 50-20 20 0 38 7 50 20l205 203c14 14 21 31 21 50-2 20-10 37-23 50z m-32-50c0-5-2-9-6-12l-204-204c-6-6-19-6-25 0l-35 33c-3 3-5 8-5 13s2 10 5 13l205 203c3 3 7 5 13 5 5 0 9-2 12-5l34-33c4-4 6-8 6-13z m-331-43l17 17c5 5 7 11 7 19 0 7-3 14-7 19-11 11-28 11-37 0l-17-17c-14-14-42-12-69-10-30 3-65 5-88-19l-65-65-165 164 54 52c10-5 21-7 33-7 20 0 38 7 52 21 11 12 19 28 21 45 17 1 33 8 46 21 11 12 19 28 21 45 17 1 33 8 46 21 12 12 19 28 21 45 17 1 33 8 46 21 14 14 21 32 21 52 0 12-3 23-7 33l50 50c3 3 6 4 9 6 1 0 2 0 2 0 7 1 13-2 17-6 5-4 7-8 7-15 0-5-2-10-7-14l-36-35c-5-5-7-11-7-19 0-7 3-14 7-19 11-11 27-11 37 0l20 19c8 8 21 8 28 0 4-4 7-8 7-14s-3-10-7-15l-36-35c-5-5-7-11-7-19s3-14 7-19c11-11 27-11 37 0l19 19c8 8 22 8 29 0 4-4 7-8 7-14s-3-10-7-14l-33-33c-5-6-7-12-7-20 0-7 3-13 7-19 10-9 28-9 37 0l17 16c8 8 22 8 29 0 4-4 7-8 7-14 0-5-3-10-7-15l-42-42c-6-5-8-12-8-19 0-8 3-14 8-19 9-10 27-10 37 0l7 7 51-51-165-161-51 51c3 1 5 4 7 6z m-116 489c-5 3-14 9-24 18-12 12-20 24-24 33 3 0 7-1 14-2l69-13-35-36z m-8-80c-7-7-21-7-28 0l-87 85c-4 5-6 9-6 15 0 6 2 11 6 15v0c5 4 10 7 15 7 4 0 7-1 10-3 7-25 28-47 39-59 9-9 31-28 56-35 1-3 2-7 2-10-1-5-3-10-7-15z m-67-66c-7-7-21-7-28 0l-70 70c-4 4-6 8-6 14 0 6 2 11 6 14l0 0c5 4 9 7 15 7 6 0 11-3 15-7l69-69c5-4 7-8 7-15-1-5-3-9-8-14z m-66-66c-7-7-21-7-28 0l-52 53c-5 4-7 8-7 14 0 6 2 11 7 15 7 8 21 8 28 0l52-52c5-4 7-8 7-14s-3-12-7-16z m-60-52c0-5-2-10-7-15-7-7-21-7-28 0l-19 20c-5 4-7 8-7 14 0 6 2 11 7 14 7 8 21 8 28 0l19-19c5-3 7-8 7-14z m-33 407c3-4 8-6 14-6 5 0 9 2 13 6 8 7 8 19 0 26l-69 69c-7 8-19 8-26 0-8-7-8-19 0-26l68-69z m481-6c5 0 9 2 13 6l70 69c7 7 7 19 0 26-8 8-20 8-27 0l-69-69c-8-7-8-19 0-26 3-5 7-6 13-6z m-595-700c-7-7-7-19 0-26l0 0c3-4 8-6 14-6 5 0 9 2 14 6 7 7 7 19 0 26-9 8-21 8-28 0l0 0z m520 146c3 0 5 1 9 2 9 4 12 16 8 26-4 9-16 13-25 8l0 0c-10-4-13-16-9-25 3-7 10-11 17-11l0 0z" horiz-adv-x="989" />

<glyph glyph-name="wall-clock" unicode="&#xe8f9;" d="M854 704c-95 94-220 146-354 146-134 0-259-52-354-146-94-95-146-220-146-354s52-259 146-354c94-94 220-146 354-146 134 0 259 52 354 146 94 94 146 220 146 354s-52 259-146 354z m-354-770c-229 0-416 187-416 416 0 229 187 416 416 416s416-187 416-416c0-229-187-416-416-416z m-147 151c-17 10-38 4-48-13-10-17-4-38 13-48 6-3 12-5 17-5 12 0 24 6 30 17 10 18 4 40-12 49z m-28 525c6 0 12 2 18 5 17 10 22 31 13 48-10 17-31 22-48 13-17-10-22-31-13-48 6-12 18-18 30-18z m-137-125c6-3 12-5 17-5 12 0 24 6 30 18 10 17 4 38-13 48-17 10-38 4-48-13-9-17-3-39 14-48z m307 175c0 0 0 0 0 0 19 0 35 16 35 35 0 19-16 35-35 35-19 0-35-16-35-35 0-19 16-35 35-35z m-308-455c-17-10-22-31-13-48 6-11 18-17 30-17 6 0 12 2 18 5 17 10 22 31 13 48-9 16-31 22-48 12z m3 140c0 19-16 35-35 35-19 0-35-16-35-35 0-19 16-35 35-35h0c19 0 35 16 35 35z m315-305c-19 0-35-16-35-35 0-19 16-35 35-35 19 0 35 16 35 35 0 19-16 35-35 35z m308 165c-17 10-38 4-48-13-10-17-4-38 13-48 6-3 12-5 17-5 12 0 24 6 30 17 10 18 4 40-12 49z m32 185c-19 0-35-16-35-35 0 0 0 0 0-1 0 0 0 0 0 0 0-19 16-35 35-35 19 0 35 15 35 35 0 0 0 0 0 0 0 0 0 0 0 0 0 21-16 36-35 36z m-197 225c5-3 12-5 17-5 12 0 24 6 30 18 10 17 4 38-13 48-17 10-38 4-48-13-9-17-3-39 14-48z m9-530c-17-10-22-31-13-48 6-11 18-17 30-17 6 0 12 2 17 5 17 10 22 31 13 48-8 16-30 22-47 12z m138 405c6 0 12 2 18 5 17 10 22 31 13 48-10 17-31 22-48 13-17-10-22-31-13-48 6-12 18-18 30-18z m-88-161l-176 12-18 263c-1 9-8 16-17 16-9 0-16-7-17-16l-17-258-28 2c-4 0-7-1-10-4-3-3-4-6-4-10v-38c0-4 2-7 4-10 3-2 6-4 9-4 0 0 1 0 1 0l24 2-2-26c0-5 1-9 5-13 3-3 8-5 12-5h47c0 0 0 0 0 0 9 0 17 8 17 17 0 1-2 32-2 32l173 12c7 0 13 7 13 14-1 8-7 14-14 14z" horiz-adv-x="1000" />

<glyph glyph-name="calendar" unicode="&#xe8fa;" d="M893 743l-107 0 0 71c0 20-16 36-36 36-20 0-36-16-36-36l0-71-428 0 0 71c0 20-16 36-36 36-20 0-36-16-36-36l0-71-107 0c-59 0-107-48-107-107l0-679c0-59 48-107 107-107l786 0c59 0 107 48 107 107l0 679c0 59-48 107-107 107z m36-786c0-20-16-36-36-36l-786 0c-20 0-36 16-36 36l0 464 858 0 0-464z m0 536l-858 0 0 143c0 19 16 35 36 35l107 0 0-71c0-20 16-36 36-36 20 0 36 16 36 36l0 71 428 0 0-71c0-20 16-36 36-36 20 0 36 16 36 36l0 71 107 0c20 0 36-16 36-35l0-143 0 0z m-642-149l-68 0c-19 0-34-14-34-31 0-17 15-31 34-31l68 0c19 0 34 14 34 31 0 17-15 31-34 31z m235 0l-68 0c-19 0-34-14-34-31 0-17 15-31 34-31l68 0c18 0 34 14 34 31 0 17-16 31-34 31z m259 0l-68 0c-19 0-34-14-34-31 0-17 15-31 34-31l68 0c19 0 34 14 34 31 0 17-15 31-34 31z m-494-136l-68 0c-19 0-34-14-34-31 0-17 15-31 34-31l68 0c19 0 34 14 34 31 0 17-15 31-34 31z m235 0l-68 0c-19 0-34-14-34-31 0-17 15-31 34-31l68 0c18 0 34 14 34 31 0 17-16 31-34 31z m259 0l-68 0c-19 0-34-14-34-31 0-17 15-31 34-31l68 0c19 0 34 14 34 31 0 17-15 31-34 31z m-494-136l-68 0c-19 0-34-14-34-31 0-17 15-30 34-30l68 0c19 0 34 13 34 30 0 17-15 31-34 31z m235 0l-68 0c-19 0-34-14-34-31 0-17 15-30 34-30l68 0c18 0 34 13 34 30 0 17-16 31-34 31z m259 0l-68 0c-19 0-34-14-34-31 0-17 15-30 34-30l68 0c19 0 34 13 34 30 0 17-15 31-34 31z" horiz-adv-x="1000" />

<glyph glyph-name="giftbox" unicode="&#xe8fb;" d="M968 655l-75 0c10 15 16 32 18 50 6 58-25 110-79 134-49 21-104 12-144-23l-95-84c-19 20-46 32-75 32-30 0-56-12-75-32l-95 84c-40 35-95 44-145 23-53-24-85-76-79-134 2-18 9-35 19-50l-75 0c-38 0-68-30-68-66l0-99c0-18 15-33 34-33l968 0c19 0 34 15 34 33l0 99c0 36-30 66-68 66z m-551 10l0-10-159 0c-42 0-75 38-65 80 5 19 19 35 37 43 24 11 52 8 72-11l115-101c0 0 0 0 0-1z m427 49c-2-34-34-59-69-59l-156 0 0 10c0 1 0 1 0 2 26 22 82 72 113 99 17 15 41 22 64 16 32-10 51-36 48-68z m-773-328l0-472c0-35 32-64 70-64l323 0 0 536-393 0z m500 0l0-536 324 0c38 0 69 29 69 64l0 472-393 0z" horiz-adv-x="1036" />

<glyph glyph-name="twitter" unicode="&#xf099;" d="M904 622q-37-54-90-93 0-8 0-23 0-73-21-145t-64-139-103-117-144-82-181-30q-151 0-276 81 19-2 43-2 126 0 224 77-59 1-105 36t-64 89q19-3 34-3 24 0 48 6-63 13-104 62t-41 115v2q38-21 82-23-37 25-59 64t-22 86q0 49 25 91 68-83 164-133t208-55q-5 21-5 41 0 75 53 127t127 53q79 0 132-57 61 12 115 44-21-64-80-100 52 6 104 28z" horiz-adv-x="928.6" />

<glyph glyph-name="facebook" unicode="&#xf09a;" d="M535 843v-147h-87q-48 0-65-20t-17-60v-106h164l-22-165h-142v-424h-171v424h-142v165h142v122q0 104 58 161t155 57q82 0 127-7z" horiz-adv-x="571.4" />

<glyph glyph-name="angle-left" unicode="&#xf104;" d="M350 546q0-7-6-12l-219-220 219-219q6-6 6-13t-6-13l-28-28q-5-5-12-5t-13 5l-260 261q-6 5-6 12t6 13l260 260q5 6 13 6t12-6l28-28q6-5 6-13z" horiz-adv-x="357.1" />

<glyph glyph-name="angle-right" unicode="&#xf105;" d="M332 314q0-7-5-12l-261-261q-5-5-12-5t-13 5l-28 28q-6 6-6 13t6 13l219 219-219 220q-6 5-6 12t6 13l28 28q5 6 13 6t12-6l261-260q5-5 5-13z" horiz-adv-x="357.1" />

<glyph glyph-name="spinner" unicode="&#xf110;" d="M294 72q0-29-21-50t-51-21q-29 0-50 21t-21 50q0 30 21 51t50 21 51-21 21-51z m277-115q0-29-20-50t-51-21-50 21-21 50 21 51 50 21 51-21 20-51z m-392 393q0-30-21-50t-51-21-50 21-21 50 21 51 50 20 51-20 21-51z m670-278q0-29-21-50t-50-21q-30 0-51 21t-20 50 20 51 51 21 50-21 21-51z m-538 556q0-37-26-63t-63-26-63 26-26 63 26 63 63 26 63-26 26-63z m653-278q0-30-21-50t-50-21-51 21-21 50 21 51 51 20 50-20 21-51z m-357 393q0-45-31-76t-76-31-76 31-31 76 31 76 76 31 76-31 31-76z m296-115q0-52-37-88t-88-37q-52 0-88 37t-37 88q0 51 37 88t88 37q51 0 88-37t37-88z" horiz-adv-x="1000" />

<glyph glyph-name="youtube-play" unicode="&#xf16a;" d="M397 221l270 139-270 141v-280z m103 481q94 0 181-3t128-5l41-2q0 0 9-1t13-2 13-2 16-5 16-7 17-11 16-15q4-3 9-10t16-33 15-56q4-36 7-76t3-64v-98q1-81-10-162-4-30-14-55t-18-35l-8-9q-7-8-16-15t-17-10-16-7-16-5-13-2-13-2-9-1q-140-11-350-11-115 2-201 4t-111 4l-28 3-20 2q-20 3-30 5t-29 12-31 23q-4 3-9 10t-16 33-15 56q-4 36-7 76t-3 64v98q-1 81 10 162 4 31 14 55t18 35l8 9q8 9 16 15t17 11 16 7 16 5 13 2 13 2 9 1q140 10 350 10z" horiz-adv-x="1000" />

<glyph glyph-name="instagram" unicode="&#xf16d;" d="M571 350q0 59-41 101t-101 42-101-42-42-101 42-101 101-42 101 42 41 101z m77 0q0-91-64-156t-155-64-156 64-64 156 64 156 156 64 155-64 64-156z m61 229q0-21-15-36t-37-15-36 15-15 36 15 36 36 15 37-15 15-36z m-280 123q-4 0-43 0t-59 0-54-2-57-5-40-11q-28-11-49-32t-33-49q-6-16-10-40t-6-58-1-53 0-59 0-43 0-43 0-59 1-53 6-58 10-40q12-28 33-49t49-32q16-6 40-11t57-5 54-2 59 0 43 0 42 0 59 0 54 2 58 5 39 11q28 11 50 32t32 49q6 16 10 40t6 58 1 53 0 59 0 43 0 43 0 59-1 53-6 58-10 40q-11 28-32 49t-50 32q-16 6-39 11t-58 5-54 2-59 0-42 0z m428-352q0-128-3-177-5-116-69-180t-179-69q-50-3-177-3t-177 3q-116 6-180 69t-69 180q-3 49-3 177t3 177q5 116 69 180t180 69q49 3 177 3t177-3q116-6 179-69t69-180q3-49 3-177z" horiz-adv-x="857.1" />

<glyph glyph-name="apple" unicode="&#xf179;" d="M777 172q-21-70-68-139-72-110-144-110-27 0-78 18-48 18-84 18-34 0-79-19-45-19-74-19-85 0-168 145-82 146-82 281 0 127 63 208 63 81 159 81 40 0 98-17 58-17 77-17 25 0 80 19 57 19 97 19 66 0 119-36 29-20 58-56-44-37-64-66-36-52-36-115 0-69 38-125t88-70z m-209 655q0-34-17-76-16-42-52-77-30-30-60-40-20-7-58-10 2 83 44 143 41 60 139 83 1-2 2-6t1-6q0-2 0-6t1-5z" horiz-adv-x="785.7" />

<glyph glyph-name="android" unicode="&#xf17b;" d="M275 581q9 0 16 6t6 15-6 16-16 6-15-6-6-16 6-15 15-6z m236 0q9 0 15 6t6 15-6 16-15 6-16-6-6-16 6-15 16-6z m-453-103q23 0 40-17t16-40v-240q0-24-16-41t-40-17-41 17-17 41v240q0 23 17 40t41 17z m591-11v-371q0-26-18-44t-43-18h-42v-127q0-24-16-40t-41-17-41 17-17 40v127h-77v-127q0-24-16-40t-41-17q-24 0-40 17t-17 40l-1 127h-41q-26 0-43 18t-18 44v371h512z m-129 226q59-30 95-85t36-121h-516q0 66 35 121t96 85l-39 73q-4 8 2 12 8 3 12-4l40-74q53 24 112 24t112-24l40 74q4 7 11 4 7-4 3-12z m266-272v-240q0-24-17-41t-41-17q-23 0-40 17t-17 41v240q0 24 17 40t40 17q24 0 41-17t17-40z" horiz-adv-x="785.7" />

<glyph glyph-name="bug-1" unicode="&#xf188;" d="M911 314q0-14-11-25t-25-10h-125q0-96-37-162l116-117q10-11 10-25t-10-25q-10-11-25-11t-25 11l-111 110q-3-3-8-7t-24-16-36-21-46-16-54-7v500h-71v-500q-29 0-57 7t-49 19-36 22-25 18l-8 8-102-116q-11-12-27-12-13 0-24 9-11 10-11 25t8 26l113 127q-32 63-32 153h-125q-15 0-25 10t-11 25 11 25 25 11h125v164l-97 97q-11 10-11 25t11 25 25 10 25-10l97-97h471l96 97q11 10 25 10t26-10 10-25-10-25l-97-97v-164h125q15 0 25-11t11-25z m-268 322h-357q0 74 52 126t126 52 127-52 52-126z" horiz-adv-x="928.6" />

<glyph glyph-name="at" unicode="&#xf1fa;" d="M542 418q0 60-29 94t-83 34q-35 0-69-17t-61-47-45-77-17-100q0-63 30-97t84-34q54 0 98 37t69 93 23 114z m315-68q0-62-20-110t-55-75-74-42-81-15q-3 0-8 0t-10-1q-53 0-79 30-15 18-18 46-29-37-74-61t-96-25q-90 0-140 54t-49 150q0 88 37 162t100 117 137 43q48 0 86-19t60-56l1 11 6 31q0 3 3 7t5 3h66q3 0 7-6 3-3 2-9l-67-343q-3-13-3-26 0-22 7-29t25-8q16 1 32 3t41 14 43 28 31 50 14 76q0 163-97 260t-260 97q-73 0-139-28t-114-76-76-114-29-139 29-139 76-113 114-77 139-28q127 0 226 80 6 5 13 5t12-7l23-27q4-7 4-14-2-7-7-12-57-46-127-72t-144-25q-87 0-167 34t-136 92-92 137-34 166 34 166 92 137 136 92 167 34q192 0 310-119t118-310z" horiz-adv-x="857.1" />

<glyph glyph-name="venus" unicode="&#xf221;" d="M643 529q0-124-82-215t-204-105v-145h125q8 0 13-5t5-13v-35q0-8-5-13t-13-5h-125v-125q0-8-5-13t-13-5h-35q-8 0-13 5t-5 13v125h-125q-8 0-13 5t-5 13v35q0 8 5 13t13 5h125v145q-84 9-152 58t-104 125-29 163q6 75 45 139t102 105 137 49q95 10 178-30t131-119 49-170z m-572 0q0-104 74-177t176-73 177 73 73 177-73 176-177 74-176-74-74-176z" horiz-adv-x="714.3" />

<glyph glyph-name="mars" unicode="&#xf222;" d="M821 779q15 0 26-11t10-25v-232q0-8-5-13t-13-5h-35q-8 0-13 5t-5 13v146l-213-214q70-87 70-200 0-65-25-125t-69-102-103-69-125-26-124 26-103 69-69 102-25 125 25 125 69 102 103 69 124 25q114 0 201-70l213 213h-146q-7 0-12 5t-6 13v36q0 8 6 13t12 5h232z m-500-786q104 0 177 73t73 177-73 177-177 73-176-73-74-177 74-177 176-73z" horiz-adv-x="857.1" />

<glyph glyph-name="transgender" unicode="&#xf224;" d="M714 832q0 8 5 13t13 5h161q14 0 25-11t11-25v-160q0-8-5-13t-13-5h-36q-8 0-13 5t-5 13v74l-142-142q71-88 71-200 0-124-83-215t-203-104v-74h54q7 0 12-5t5-13v-36q0-8-5-13t-12-5h-54v-53q0-8-5-13t-13-5h-36q-7 0-12 5t-5 13v53h-54q-8 0-13 5t-5 13v36q0 8 5 13t13 5h54v74q-121 13-204 104t-82 215q0 112 70 200l-29 30-56-62q-5-6-12-6t-13 4l-27 25q-6 4-6 12t5 13l58 64-62 62v-74q0-8-5-13t-12-5h-36q-8 0-13 5t-5 13v160q0 15 11 25t25 11h160q8 0 13-5t5-13v-36q0-7-5-12t-13-5h-74l59-60 48 52q5 6 13 6t13-4l26-25q6-4 6-12t-5-13l-50-55 32-31q88 70 200 70t201-70l142 142h-75q-8 0-13 5t-5 12v36z m-250-696q104 0 177 73t73 177-73 176-177 74-176-74-74-176 74-177 176-73z" horiz-adv-x="1000" />

</font>
</defs>
</svg>
